找回密码

查看: 2669|回复: 0

[悬疑] 破镜谋杀案/破镜奇案 The.Mirror.Crackd.1980.RESTORED.1080p.BluRay.x264-USURY 10.92GB

[复制链接]
蓝光币
1974
发表于 2017-12-19 22:17:47 | 显示全部楼层 |阅读模式
191325l8z8h3hxfzveeuze.jpg
◎译  名 破镜谋杀案 / 破镜奇案
◎片  名 破镜谋杀案 The Mirror Crack'd
◎年  代 1980
◎国  家 英国
◎类  别 悬疑 / 惊悚 / 犯罪
◎语  言 英语
◎上映日期 1980-12-19
◎IMDb评分  6.2/10 from 5,273 users
◎IMDb链接  http://www.imdb.com/title/tt0081163/
◎豆瓣评分 7.0/10 from 846 users
◎豆瓣链接 https://movie.douban.com/subject/1299015/
◎片  长 105 分钟
◎导  演 盖伊·汉弥尔顿
◎主  演 安吉拉·兰斯伯瑞 Angela Lansbury
      伊丽莎白·泰勒 Elizabeth Taylor
      爱德华·福克斯 Edward Fox
      罗克·赫德森 Rock Hudson

◎简  介 

  玛丽拉(伊丽莎白·泰勒 Elizabeth Taylor 饰)是一位在行业内申明显赫的电影明星,在一场宴会上,一路灭亡事务的发生让她堕入了危险的地步。本来,死者死于一杯鸩酒,而这杯鸩酒本应被玛丽拉饮下。警方敏捷介入了观察,随着线索的展开,玛丽拉的丈夫杰森(洛克·哈德森 Rock Hudson 饰)成为了尽头思疑工具。
  不幸的是,工作并没有就此终结,奥秘的匿名电话,诡异的敲诈字条,在庞大的压力之下,玛丽拉的精神敏捷接近着解体的边沿。杰森真的是凶手吗?又是谁对玛丽拉有着如此的深仇大恨呢?聪明的马普尔蜜斯(安吉拉·兰斯伯瑞 Angela Lansbury 饰)看出了其中的眉目,她可以顺遂处理这一案件吗?



  1. Video
  2. ID                                       : 1
  3. Format                                   : AVC
  4. Format/Info                              : Advanced Video Codec
  5. Format profile                           : [email]High@L4.1[/email]
  6. Format settings                          : CABAC / 4 Ref Frames
  7. Format settings, CABAC                   : Yes
  8. Format settings, RefFrames               : 4 frames
  9. Codec ID                                 : V_MPEG4/ISO/AVC
  10. Duration                                 : 1 h 45 min
  11. Bit rate                                 : 14.0 Mb/s
  12. Width                                    : 1 920 pixels
  13. Height                                   : 1 016 pixels
  14. Display aspect ratio                     : 1.890
  15. Frame rate mode                          : Constant
  16. Frame rate                               : 24.000 FPS
  17. Color space                              : YUV
  18. Chroma subsampling                       : 4:2:0
  19. Bit depth                                : 8 bits
  20. Scan type                                : Progressive
  21. Bits/(Pixel*Frame)                       : 0.299
  22. Stream size                              : 10.3GB (95%)
  23. Writing library                          : x264 core 152 r2851 ba24899
  24. Encoding settings                        : cabac=1 / ref=4 / deblock=1:-3:-3 / analyse=0x3:0x133 / me=umh / subme=9 / psy=1 / psy_rd=1.00:0.00 / mixed_ref=1 / me_range=16 / chroma_me=1 / trellis=2 / 8x8dct=1 / cqm=0 / deadzone=21,11 / fast_pskip=0 / chroma_qp_offset=-2 / threads=24 / lookahead_threads=2 / sliced_threads=0 / nr=0 / decimate=1 / interlaced=0 / bluray_compat=0 / constrained_intra=0 / bframes=3 / b_pyramid=2 / b_adapt=1 / b_bias=0 / direct=3 / weightb=1 / open_gop=0 / weightp=2 / keyint=240 / keyint_min=24 / scenecut=40 / intra_refresh=0 / rc_lookahead=50 / rc=2pass / mbtree=1 / bitrate=13999 / ratetol=1.0 / qcomp=0.60 / qpmin=0 / qpmax=69 / qpstep=4 / cplxblur=20.0 / qblur=0.5 / ip_ratio=1.40 / aq=1:1.00
  25. Language                                 : English
  26. Default                                  : Yes
  27. Forced                                   : No

  28. Audio
  29. ID                                       : 2
  30. Format                                   : DTS
  31. Format/Info                              : Digital Theater Systems
  32. Mode                                     : 16
  33. Format settings, Endianness              : Big
  34. Codec ID                                 : A_DTS
  35. Duration                                 : 1 h 45 min
  36. Bit rate mode                            : Constant
  37. Bit rate                                 : 768 kb/s
  38. Channel(s)                               : 2 channels
  39. Channel positions                        : Front: L R
  40. Sampling rate                            : 48.0 kHz
  41. Frame rate                               : 93.750 FPS (512 SPF)
  42. Bit depth                                : 24 bits
  43. Compression mode                         : Lossy
  44. Stream size                              : 581 MiB (5%)
  45. Language                                 : English
  46. Default                                  : Yes
  47. Forced                                   : No

  48. Text #1
  49. ID                                       : 3
  50. Format                                   : UTF-8
  51. Codec ID                                 : S_TEXT/UTF8
  52. Codec ID/Info                            : UTF-8 Plain Text
  53. Duration                                 : 1 h 41 min
  54. Bit rate                                 : 75 b/s
  55. Count of elements                        : 1490
  56. Stream size                              : 56.2 KiB (0%)
  57. Title                                    : English
  58. Language                                 : English
  59. Default                                  : No
  60. Forced                                   : No

  61. Text #2
  62. ID                                       : 4
  63. Format                                   : UTF-8
  64. Codec ID                                 : S_TEXT/UTF8
  65. Codec ID/Info                            : UTF-8 Plain Text
  66. Duration                                 : 1 h 42 min
  67. Bit rate                                 : 78 b/s
  68. Count of elements                        : 1585
  69. Stream size                              : 58.7 KiB (0%)
  70. Title                                    : English SDH
  71. Language                                 : English
  72. Default                                  : No
  73. Forced                                   : No

  74. Menu
  75. 00:00:00.000                             : en:00:00:00.000
  76. 00:08:29.375                             : en:00:08:29.375
  77. 00:17:21.167                             : en:00:17:21.167
  78. 00:26:00.625                             : en:00:26:00.625
  79. 00:35:22.458                             : en:00:35:22.458
  80. 00:41:47.458                             : en:00:41:47.458
  81. 00:51:42.208                             : en:00:51:42.208
  82. 01:00:12.000                             : en:01:00:12.000
  83. 01:06:02.500                             : en:01:06:02.500
  84. 01:16:25.208                             : en:01:16:25.208
  85. 01:25:41.958                             : en:01:25:41.958
  86. 01:32:57.167                             : en:01:32:57.167




复制代码
复制代码
191326ssg300znwuw9u099.jpg






回复

使用道具 举报

懒得打字嘛,点击右侧快捷回复 【右侧内容,后台自定义】
您需要登录后才可以回帖 登录 | 立即加入

本版积分规则

Archiver| |网站地图

Copyright © 2024 Comsenz Inc. Powered by 蓝光电影网

本站内容由用户自主分享和转载自互联网,转载目的在于传递更多信息,并不代表本网赞同其观点和对其真实性负责。

如有侵权、违反国家法律政策行为,请联系我们,我们会第一时间及时清除和处理!

举报反馈邮箱:4k1080.com@gmail.com

快速回复 返回顶部 返回列表