找回密码

查看: 4169|回复: 3

[悬疑] 六月之蛇.A Snake of June.2002.JP.BluRay.1436x1072p.x264.DTS-KOOK.[中英双字] 6.11GB

[复制链接]
蓝光币
1984
发表于 2017-12-19 22:35:03 | 显示全部楼层 |阅读模式
六月之蛇.A Snake of June.2002.JP.BluRay.1436x1072p.x264.DTS-KOOK.[中英双字]
091258ovbqvm2epmlvd7pm.jpg
091259t0h5nvssy7dsn4yp.jpg
※※※※※※※ 影片信息 ※※※※※※※

◎片   名 六月の蛇
◎译   名 六月之蛇 / A Snake of June
◎年   代 2002
◎国   家 日本
◎类   别 剧情 / 悬疑 / 情色
◎语   言 日语
◎上映日 期 2002-09-01
◎字   幕 中英双字/简体字幕/繁体字幕/英笔墨幕
◎IMDB 评分  7.0/10 from 3357 users
◎豆瓣 评分  7.1/10 from 3048 users
◎视频尺 寸  1436x1072p
◎片   长 1.16.53
◎导   演 塚本晋也
◎编     剧  塚本晋也
◎主   演 黑泽明日香 / 神足裕司 / 塚本晋也 / 寺岛进 / 不破万作




◎简  介

  六月的东京,连缀不竭的梅雨,让民气乱如麻,欲念横生。供职于心理征询室的少妇凛子(黒沢あすか 饰)与丈夫(神足裕司 饰)过着优渥的生活,但是夫妻虽然相爱,却因丈夫洁癖的缘由始终没有性事。贤淑温良而又倍感压制的凛子只能经过自慰追求片刻的满足。某天,一个名叫道郎(塚本晋也 饰)的男人被自杀的动机所困扰,因而打来电话乞助。道郎在凛子的启发下渐渐摆脱自杀的泥潭,却转而沉迷于凛子的温柔中。他以凛子自慰的照片作威胁,强逼这个一向守旧的女子做出一件又一件令她倍感屈辱的工作……
  
本片按照导演塚本晋也的同名小说改编,并荣获2002年威尼斯电影节圣马科评审团出格大奖、2003年葡萄牙国际奇异影展最好女配角(黒沢あすか)和评审团大奖。






※※※※※※※ 参数信息 ※※※※※※※


General
Unique ID                      : 251828334554281096035035436722958084685 (0xBD745F7F4F0305C6BA224F91AB97AA4D)

Format                         : Matroska
Format version                 : Version 4 / Version 2
File size                      : 6.12GB
Duration                       : 1h 16mn
Overall bit rate               : 11.4 Mbps
Encoded date                   : UTC 2017-11-14 07:52:54
Writing application            : mkvmerge v7.7.0 ( Six Voices ) 32bit built on Feb 28 2015 23:23:00
Writing library                : libebml v1.3.1 + libmatroska v1.4.2
Attachements                   : 蓝光 日本.jpg / msyh.ttf / msyhbd.ttf

Video
ID                             : 1
Format                         : AVC
Format/Info                    : Advanced Video Codec
Format profile                 : High@L4.1
Format settings, CABAC         : Yes
Format settings, ReFrames      : 4 frames
Codec ID                       : V_MPEG4/ISO/AVC
Duration                       : 1h 16mn
Bit rate                       : 9 816 Kbps
Width                          : 1 436 pixels
Height                         : 1 072 pixels
Display aspect ratio           : 4:3
Frame rate mode                : Constant
Frame rate                     : 23.976 (24000/1001) fps
Color space                    : YUV
Chroma subsampling             : 4:2:0
Bit depth                      : 8 bits
Scan type                      : Progressive
Bits/(Pixel*Frame)             : 0.266
Stream size                    : 5.27GB (86%)
Writing library                : x264 core 148 r2699+6+41 29a38aa Yuuki [8-bit@4:2:0 X86_64][GCC 5.3.0]
Encoding settings              : cabac=1 / ref=4 / deblock=1:-3:-3 / analyse=0x3:0x113 / me=umh / subme=11 / psy=1 / fade_compensate=0.00 / psy_rd=1.00:0.05 / mixed_ref=1 / me_range=32 / chroma_me=1 / trellis=2 / 8x8dct=1 / cqm=0 / deadzone=21,11 / fast_pskip=0 / chroma_qp_offset=-2 / threads=32 / lookahead_threads=5 / sliced_threads=0 / nr=0 / decimate=1 / interlaced=0 / bluray_compat=0 / constrained_intra=0 / fgo=0 / bframes=8 / b_pyramid=2 / b_adapt=2 / b_bias=0 / direct=3 / weightb=1 / open_gop=0 / weightp=2 / keyint=250 / keyint_min=23 / scenecut=40 / intra_refresh=0 / rc_lookahead=40 / rc=crf / mbtree=0 / crf=18.8000 / qcomp=0.60 / qpmin=0:0:0 / qpmax=69:69:69 / qpstep=4 / vbv_maxrate=50000 / vbv_bufsize=40000 / crf_max=0.0 / nal_hrd=none / filler=0 / ip_ratio=1.40 / pb_ratio=1.30 / aq=3:0.90
Language                       : English
Default                        : Yes
Forced                         : No

Audio
ID                             : 2
Format                         : DTS
Format/Info                    : Digital Theater Systems
Mode                           : 16
Format settings, Endianness    : Big
Codec ID                       : A_DTS
Duration                       : 1h 16mn
Bit rate mode                  : Constant
Bit rate                       : 1 509 Kbps
Channel(s)                     : 6 channels
Channel positions              : Front: L C R, Side: L R, LFE
Sampling rate                  : 48.0 KHz
Frame rate                     : 93.750 fps (512 spf)
Bit depth                      : 24 bits
Compression mode               : Lossy
Stream size                    : 830 MiB (13%)
Language                       : Japanese
Default                        : Yes
Forced                         : No

Text #1
ID                             : 3
Format                         : ASS
Codec ID                       : S_TEXT/ASS
Codec ID/Info                  : Advanced Sub Station Alpha
Duration                       : 1h 16mn
Bit rate                       : 78 bps
Count of elements              : 401
Compression mode               : Lossless
Stream size                    : 44.2 KiB (0%)
Title                          : 中英字幕
Language                       : Chinese
Default                        : Yes
Forced                         : No

Text #2
ID                             : 4
Format                         : ASS
Codec ID                       : S_TEXT/ASS
Codec ID/Info                  : Advanced Sub Station Alpha
Duration                       : 1h 16mn
Bit rate                       : 41 bps
Count of elements              : 401
Compression mode               : Lossless
Stream size                    : 23.6 KiB (0%)
Title                          : 简体字幕
Language                       : Chinese
Default                        : No
Forced                         : No

Text #3
ID                             : 5
Format                         : ASS
Codec ID                       : S_TEXT/ASS
Codec ID/Info                  : Advanced Sub Station Alpha
Duration                       : 1h 16mn
Bit rate                       : 41 bps
Count of elements              : 401
Compression mode               : Lossless
Stream size                    : 23.6 KiB (0%)
Title                          : 繁体字幕
Language                       : Chinese
Default                        : No
Forced                         : No

Text #4
ID                             : 6
Format                         : ASS
Codec ID                       : S_TEXT/ASS
Codec ID/Info                  : Advanced Sub Station Alpha
Duration                       : 1h 16mn
Bit rate                       : 61 bps
Count of elements              : 401
Compression mode               : Lossless
Stream size                    : 34.6 KiB (0%)
Title                          : 英笔墨幕
Language                       : Chinese
Default                        : No
Forced                         : No
091300vz0dz88lql0qxqme.jpg





回复

使用道具 举报

懒得打字嘛,点击右侧快捷回复 【右侧内容,后台自定义】
您需要登录后才可以回帖 登录 | 立即加入

本版积分规则

Archiver| |网站地图

Copyright © 2024 Comsenz Inc. Powered by 蓝光电影网

本站内容由用户自主分享和转载自互联网,转载目的在于传递更多信息,并不代表本网赞同其观点和对其真实性负责。

如有侵权、违反国家法律政策行为,请联系我们,我们会第一时间及时清除和处理!

举报反馈邮箱:4k1080.com@gmail.com

快速回复 返回顶部 返回列表