找回密码

查看: 3913|回复: 0

[剧情] 堕落东京 Tokyo.Decadence.1992.1080p.BluRay.x264-USURY 10.92GB

[复制链接]
蓝光币
1992
发表于 2017-12-19 23:32:51 | 显示全部楼层 |阅读模式
234811bru969duour5opu9.jpg
◎译  名 出错东京 / Topazu / Tokyo Decadence
◎片  名 出错东京 トパーズ
◎年  代 1992
◎国  家 日本
◎类  别 剧情
◎语  言 日语 / 英语
◎上映日期 1992-01-06(日本)
◎IMDb评分  6.1/10 from 2,290 users
◎IMDb链接  http://www.imdb.com/title/tt0105622/
◎豆瓣评分 6.5/10 from 1040 users
◎豆瓣链接 https://movie.douban.com/subject/1426814/
◎片  长 135分钟
◎导  演 村上龙
◎主  演 二阶堂美穗 Miho Nikaido
      天野小夜子
      加納典明
      岛田雅彦 Masahiko Shimada
      三上寛
      瀬間千恵
      草间弥生 Yayoi Kusama
      野崎奈美
      信太昌之

◎简  介 

  嫖客是黑社会老迈,和妓女在某大厦酒店内玩SM,他让妓女背对着他趴在落地玻璃窗上,扭动臀部,这个镜头能够是用直升飞机拍摄的:从午时到将暮的傍晚,光影在万丈高楼之间作多少活动,妓女一向趴在巨幅落地窗上。嫖客的要求很简单,就是扭到“湿”了为止。完了,嫖客问妓女:“你感觉你是一个怎样的人?”,妓女答:“是一个几近没有用的人”。
  嫖客说:“错了,你很有潜质,你要相信自己。”然后嫖客叹了一口气:“哎,我活了40多岁,大白了,实在我是一个猥琐的人。”……影片揭露了日本社会的有钱阶级和中产阶级,心里的变态和失落。



  1. Video
  2. ID                                       : 1
  3. Format                                   : AVC
  4. Format/Info                              : Advanced Video Codec
  5. Format profile                           : [email]High@L4.1[/email]
  6. Format settings                          : CABAC / 4 Ref Frames
  7. Format settings, CABAC                   : Yes
  8. Format settings, RefFrames               : 4 frames
  9. Codec ID                                 : V_MPEG4/ISO/AVC
  10. Duration                                 : 1 h 52 min
  11. Bit rate                                 : 12.9 Mb/s
  12. Width                                    : 1 792 pixels
  13. Height                                   : 1 080 pixels
  14. Display aspect ratio                     : 5:3
  15. Frame rate mode                          : Constant
  16. Frame rate                               : 23.976 (24000/1001) FPS
  17. Color space                              : YUV
  18. Chroma subsampling                       : 4:2:0
  19. Bit depth                                : 8 bits
  20. Scan type                                : Progressive
  21. Bits/(Pixel*Frame)                       : 0.279
  22. Stream size                              : 10.2GB (93%)
  23. Writing library                          : x264 core 152 r2851 ba24899
  24. Encoding settings                        : cabac=1 / ref=4 / deblock=1:-3:-3 / analyse=0x3:0x133 / me=umh / subme=9 / psy=1 / psy_rd=1.00:0.00 / mixed_ref=1 / me_range=16 / chroma_me=1 / trellis=2 / 8x8dct=1 / cqm=0 / deadzone=21,11 / fast_pskip=0 / chroma_qp_offset=-2 / threads=18 / lookahead_threads=1 / sliced_threads=0 / nr=0 / decimate=1 / interlaced=0 / bluray_compat=0 / constrained_intra=0 / bframes=3 / b_pyramid=2 / b_adapt=1 / b_bias=0 / direct=3 / weightb=1 / open_gop=0 / weightp=2 / keyint=240 / keyint_min=24 / scenecut=40 / intra_refresh=0 / rc_lookahead=50 / rc=2pass / mbtree=1 / bitrate=12938 / ratetol=1.0 / qcomp=0.60 / qpmin=0 / qpmax=69 / qpstep=4 / cplxblur=20.0 / qblur=0.5 / ip_ratio=1.40 / aq=1:1.00
  25. Language                                 : English
  26. Default                                  : Yes
  27. Forced                                   : No

  28. Audio
  29. ID                                       : 2
  30. Format                                   : DTS
  31. Format/Info                              : Digital Theater Systems
  32. Mode                                     : 16
  33. Format settings, Endianness              : Big
  34. Codec ID                                 : A_DTS
  35. Duration                                 : 1 h 52 min
  36. Bit rate mode                            : Constant
  37. Bit rate                                 : 960 kb/s
  38. Channel(s)                               : 2 channels
  39. Channel positions                        : Front: L R
  40. Sampling rate                            : 48.0 kHz
  41. Frame rate                               : 93.750 FPS (512 SPF)
  42. Bit depth                                : 24 bits
  43. Compression mode                         : Lossy
  44. Stream size                              : 772 MiB (7%)
  45. Language                                 : Japanese
  46. Default                                  : Yes
  47. Forced                                   : No

  48. Text
  49. ID                                       : 3
  50. Format                                   : UTF-8
  51. Codec ID                                 : S_TEXT/UTF8
  52. Codec ID/Info                            : UTF-8 Plain Text
  53. Duration                                 : 1 h 42 min
  54. Bit rate                                 : 17 b/s
  55. Count of elements                        : 548
  56. Stream size                              : 13.4 KiB (0%)
  57. Title                                    : English
  58. Language                                 : English
  59. Default                                  : Yes
  60. Forced                                   : Yes

  61. Menu
  62. 00:00:00.000                             : en:00:00:00.000
  63. 00:05:03.428                             : en:00:05:03.428
  64. 00:10:43.977                             : en:00:10:43.977
  65. 00:17:10.780                             : en:00:17:10.780
  66. 00:23:58.562                             : en:00:23:58.562
  67. 00:30:32.539                             : en:00:30:32.539
  68. 00:35:03.560                             : en:00:35:03.560
  69. 00:40:45.026                             : en:00:40:45.026
  70. 00:50:42.039                             : en:00:50:42.039
  71. 00:56:05.988                             : en:00:56:05.988
  72. 01:00:23.662                             : en:01:00:23.662
  73. 01:06:16.931                             : en:01:06:16.931
  74. 01:15:19.515                             : en:01:15:19.515
  75. 01:21:46.652                             : en:01:21:46.652
  76. 01:26:38.902                             : en:01:26:38.902
  77. 01:33:26.434                             : en:01:33:26.434
  78. 01:38:41.415                             : en:01:38:41.415
  79. 01:42:32.897                             : en:01:42:32.897
  80. 01:48:04.269                             : en:01:48:04.269
  81. 01:50:35.254                             : en:01:50:35.254




复制代码
复制代码
234813sze59ge821ufp2fu.jpg






回复

使用道具 举报

懒得打字嘛,点击右侧快捷回复 【右侧内容,后台自定义】
您需要登录后才可以回帖 登录 | 立即加入

本版积分规则

Archiver| |网站地图

Copyright © 2024 Comsenz Inc. Powered by 蓝光电影网

本站内容由用户自主分享和转载自互联网,转载目的在于传递更多信息,并不代表本网赞同其观点和对其真实性负责。

如有侵权、违反国家法律政策行为,请联系我们,我们会第一时间及时清除和处理!

举报反馈邮箱:4k1080.com@gmail.com

快速回复 返回顶部 返回列表