找回密码

查看: 2681|回复: 0

[奇幻] 幽蓝幻境 Behind.The.Blue.Door.2016.1080p.BluRay.x264-ROVERS 6.56GB

[复制链接]
蓝光币
1974
发表于 2017-12-19 23:35:01 | 显示全部楼层 |阅读模式
235025ikltzaslby2tb22t.jpg
◎译  名 幽蓝幻景 / Behind The Blue Door
◎片  名 幽蓝幻景 Za niebieskimi drzwiami
◎年  代 2016
◎国  家 波兰
◎类  别 家庭 / 奇异 / 冒险
◎语  言 波兰语
◎上映日期 2016-11-04(波兰)
◎IMDb评分  7.0/10 from 97 users
◎IMDb链接  http://www.imdb.com/title/tt6233882/
◎豆瓣评分 今朝无人评价
◎豆瓣链接 https://movie.douban.com/subject/27202946/
◎片  长 99分钟
◎导  演 Mariusz Palej
◎主  演 Dominik Kowalczyk
      伊娃·布拉什奇克 Ewa Blaszczyk
      Magdalena Niec
      米哈乌·热布罗夫斯基 Michal Zebrowski
      Teresa Lipowska
      亚当·费仁希 Adam Ferency

◎简  介 

  车祸以后, 卢卡斯在阿姨家发现了通往幽蓝幻景的大门, 奇异的幻景交织着现实与梦乡。本片改编自波兰畅销小说,一部超越最狂野胡想的冒险书籍。



  1. Video
  2. ID                                       : 1
  3. Format                                   : AVC
  4. Format/Info                              : Advanced Video Codec
  5. Format profile                           : [email]High@L4.1[/email]
  6. Format settings                          : CABAC / 4 Ref Frames
  7. Format settings, CABAC                   : Yes
  8. Format settings, RefFrames               : 4 frames
  9. Codec ID                                 : V_MPEG4/ISO/AVC
  10. Duration                                 : 1 h 32 min
  11. Bit rate                                 : 8 605 kb/s
  12. Width                                    : 1 920 pixels
  13. Height                                   : 1 000 pixels
  14. Display aspect ratio                     : 1.920
  15. Frame rate mode                          : Constant
  16. Frame rate                               : 24.000 FPS
  17. Color space                              : YUV
  18. Chroma subsampling                       : 4:2:0
  19. Bit depth                                : 8 bits
  20. Scan type                                : Progressive
  21. Bits/(Pixel*Frame)                       : 0.187
  22. Stream size                              : 5.58GB (85%)
  23. Writing library                          : x264 core 152 r2851 ba24899
  24. Encoding settings                        : cabac=1 / ref=4 / deblock=1:0:0 / analyse=0x3:0x133 / me=umh / subme=7 / psy=1 / psy_rd=1.00:0.00 / mixed_ref=1 / me_range=16 / chroma_me=1 / trellis=1 / 8x8dct=1 / cqm=0 / deadzone=21,11 / fast_pskip=0 / chroma_qp_offset=-2 / threads=24 / lookahead_threads=4 / sliced_threads=0 / nr=0 / decimate=1 / interlaced=0 / bluray_compat=0 / constrained_intra=0 / bframes=3 / b_pyramid=2 / b_adapt=1 / b_bias=0 / direct=1 / weightb=1 / open_gop=0 / weightp=2 / keyint=250 / keyint_min=24 / scenecut=40 / intra_refresh=0 / rc_lookahead=40 / rc=2pass / mbtree=1 / bitrate=8605 / ratetol=1.0 / qcomp=0.60 / qpmin=0 / qpmax=69 / qpstep=4 / cplxblur=20.0 / qblur=0.5 / ip_ratio=1.40 / aq=1:1.00
  25. Language                                 : Polish
  26. Default                                  : Yes
  27. Forced                                   : No

  28. Audio
  29. ID                                       : 2
  30. Format                                   : DTS
  31. Format/Info                              : Digital Theater Systems
  32. Mode                                     : 16
  33. Format settings, Endianness              : Big
  34. Codec ID                                 : A_DTS
  35. Duration                                 : 1 h 32 min
  36. Bit rate mode                            : Constant
  37. Bit rate                                 : 1 509 kb/s
  38. Channel(s)                               : 6 channels
  39. Channel positions                        : Front: L C R, Side: L R, LFE
  40. Sampling rate                            : 48.0 kHz
  41. Frame rate                               : 93.750 FPS (512 SPF)
  42. Bit depth                                : 24 bits
  43. Compression mode                         : Lossy
  44. Stream size                              : 1 002 MiB (15%)
  45. Language                                 : Polish
  46. Default                                  : Yes
  47. Forced                                   : No

  48. Text
  49. ID                                       : 3
  50. Format                                   : UTF-8
  51. Codec ID                                 : S_TEXT/UTF8
  52. Codec ID/Info                            : UTF-8 Plain Text
  53. Duration                                 : 1 h 26 min
  54. Bit rate                                 : 28 b/s
  55. Count of elements                        : 584
  56. Stream size                              : 17.9 KiB (0%)
  57. Language                                 : English
  58. Default                                  : Yes
  59. Forced                                   : Yes




复制代码
复制代码
235025doo3qx01vou4zoxq.jpg






回复

使用道具 举报

懒得打字嘛,点击右侧快捷回复 【右侧内容,后台自定义】
您需要登录后才可以回帖 登录 | 立即加入

本版积分规则

Archiver| |网站地图

Copyright © 2024 Comsenz Inc. Powered by 蓝光电影网

本站内容由用户自主分享和转载自互联网,转载目的在于传递更多信息,并不代表本网赞同其观点和对其真实性负责。

如有侵权、违反国家法律政策行为,请联系我们,我们会第一时间及时清除和处理!

举报反馈邮箱:4k1080.com@gmail.com

快速回复 返回顶部 返回列表