找回密码

查看: 2732|回复: 1

[动画] 蝙蝠侠大战双面人 Batman.vs.Two-Face.2017.1080p.BluRay.X264-iNVANDRAREN 4.39GB

[复制链接]
蓝光币
1984
发表于 2017-12-19 23:48:55 | 显示全部楼层 |阅读模式
061752qbek1imp0ymm01px.jpg
◎译  名 蝙蝠侠大战双面人
◎片  名 蝙蝠侠大战双面人 Batman Vs. Two-Face
◎年  代 2017
◎国  家 美国
◎类  别 动画
◎语  言 英语
◎上映日期 2017-10-17(美国)
◎IMDb评分  6.2/10 from 716 users
◎IMDb链接  http://www.imdb.com/title/tt6142314/
◎豆瓣评分 5.3/10 from 243 users
◎豆瓣链接 https://movie.douban.com/subject/26894834/
◎片  长 72分钟
◎导  演 里克·莫拉莱斯
◎主  演 波特·瓦德 Burt Ward
      亚当·威斯特 Adam West
      威廉·夏特纳 William Shatner
      朱莉·纽玛 Julie Newmar
      琳恩·玛丽·斯图尔特 Lynne Marie Stewart
      托马斯·列农 Thomas Lennon
      吉姆·瓦德 Jim Ward
      斯蒂文·韦伯 Steven Weber

◎简  介 

  Former Gotham City District Attorney Harvey Dent, one side of his face scarred by acid, goes on a crime spree based on the number '2'. All of his actions are decided by the flip of a defaced, two-headed silver dollar.



  1. Video
  2. ID                                       : 1
  3. Format                                   : AVC
  4. Format/Info                              : Advanced Video Codec
  5. Format profile                           : [email]High@L4.1[/email]
  6. Format settings                          : CABAC / 4 Ref Frames
  7. Format settings, CABAC                   : Yes
  8. Format settings, RefFrames               : 4 frames
  9. Codec ID                                 : V_MPEG4/ISO/AVC
  10. Duration                                 : 1 h 12 min
  11. Bit rate                                 : 7 166 kb/s
  12. Width                                    : 1 920 pixels
  13. Height                                   : 1 080 pixels
  14. Display aspect ratio                     : 16:9
  15. Frame rate mode                          : Constant
  16. Frame rate                               : 23.976 (24000/1001) FPS
  17. Color space                              : YUV
  18. Chroma subsampling                       : 4:2:0
  19. Bit depth                                : 8 bits
  20. Scan type                                : Progressive
  21. Bits/(Pixel*Frame)                       : 0.144
  22. Stream size                              : 3.61GB (83%)
  23. Writing library                          : x264 core 152 r2851kMod ba24899
  24. Encoding settings                        : cabac=1 / ref=4 / deblock=1:0:0 / analyse=0x3:0x133 / me=umh / subme=7 / psy=1 / fade_compensate=0.00 / psy_rd=1.00:0.00 / mixed_ref=1 / me_range=16 / chroma_me=1 / trellis=2 / 8x8dct=1 / cqm=0 / deadzone=21,11 / fast_pskip=0 / chroma_qp_offset=-2 / threads=18 / lookahead_threads=3 / sliced_threads=0 / nr=0 / decimate=1 / interlaced=0 / bluray_compat=0 / constrained_intra=0 / bframes=3 / b_pyramid=2 / b_adapt=1 / b_bias=0 / direct=3 / weightb=1 / open_gop=0 / weightp=2 / keyint=250 / keyint_min=23 / scenecut=40 / intra_refresh=0 / rc_lookahead=50 / rc=2pass / mbtree=1 / bitrate=7166 / ratetol=1.0 / qcomp=0.60 / qpmin=0 / qpmax=69 / qpstep=4 / cplxblur=20.0 / qblur=0.5 / ip_ratio=1.40 / aq=1:1.00
  25. Language                                 : English
  26. Default                                  : Yes
  27. Forced                                   : No

  28. Audio
  29. ID                                       : 2
  30. Format                                   : DTS
  31. Format/Info                              : Digital Theater Systems
  32. Mode                                     : 16
  33. Format settings, Endianness              : Big
  34. Codec ID                                 : A_DTS
  35. Duration                                 : 1 h 12 min
  36. Bit rate mode                            : Constant
  37. Bit rate                                 : 1 509 kb/s
  38. Channel(s)                               : 6 channels
  39. Channel positions                        : Front: L C R, Side: L R, LFE
  40. Sampling rate                            : 48.0 kHz
  41. Frame rate                               : 93.750 FPS (512 SPF)
  42. Bit depth                                : 24 bits
  43. Compression mode                         : Lossy
  44. Stream size                              : 779 MiB (17%)
  45. Language                                 : English
  46. Default                                  : Yes
  47. Forced                                   : No

  48. Text
  49. ID                                       : 3
  50. Format                                   : UTF-8
  51. Codec ID                                 : S_TEXT/UTF8
  52. Codec ID/Info                            : UTF-8 Plain Text
  53. Duration                                 : 1 h 11 min
  54. Bit rate                                 : 66 b/s
  55. Count of elements                        : 1032
  56. Stream size                              : 34.9 KiB (0%)
  57. Title                                    : English SDH
  58. Language                                 : English
  59. Default                                  : Yes
  60. Forced                                   : No

  61. Menu
  62. 00:00:00.000                             : en:00:00:00.000
  63. 00:09:46.127                             : en:00:09:46.127
  64. 00:19:06.562                             : en:00:19:06.562
  65. 00:29:05.369                             : en:00:29:05.369
  66. 00:40:06.571                             : en:00:40:06.571
  67. 00:47:21.464                             : en:00:47:21.464
  68. 00:59:11.298                             : en:00:59:11.298
  69. 01:08:41.534                             : en:01:08:41.534




复制代码
复制代码
061753uuq9c2vgxaxakvqz.jpg






回复

使用道具 举报

懒得打字嘛,点击右侧快捷回复 【右侧内容,后台自定义】
您需要登录后才可以回帖 登录 | 立即加入

本版积分规则

Archiver| |网站地图

Copyright © 2024 Comsenz Inc. Powered by 蓝光电影网

本站内容由用户自主分享和转载自互联网,转载目的在于传递更多信息,并不代表本网赞同其观点和对其真实性负责。

如有侵权、违反国家法律政策行为,请联系我们,我们会第一时间及时清除和处理!

举报反馈邮箱:4k1080.com@gmail.com

快速回复 返回顶部 返回列表