找回密码

查看: 3263|回复: 3

[动作] 冲出宁静号/萤火虫 Serenity.2005.iNTERNAL.1080p.BluRay.x264-MARS 9.45GB

[复制链接]
蓝光币
1984
发表于 2017-12-20 00:07:14 | 显示全部楼层 |阅读模式
075857nfjkdfkgj66hk6id.jpg
◎译  名 冲出安好号 / 萤火虫 / 安好号
◎片  名 冲出安好号 Serenity
◎年  代 2005
◎国  家 美国
◎类  别 行动 / 科幻 / 冒险
◎语  言 英语 / 汉语普通话
◎上映日期 2005-09-30(美国)
◎IMDb评分  7.9/10 from 256,294 users
◎IMDb链接  http://www.imdb.com/title/tt0379786/
◎豆瓣评分 7.2/10 from 19802 users
◎豆瓣链接 https://movie.douban.com/subject/1309068/
◎片  长 119 分钟
◎导  演 乔斯·韦登
◎主  演 内森·菲利安 Nathan Fillion
      吉娜·托瑞斯 Gina Torres
      艾伦·图代克 Alan Tudyk
      莫蕾娜·巴卡林 Morena Baccarin
      亚当·鲍德温 Adam Baldwin
      朱尔·斯泰特 Jewel Staite
      莎莫·格劳 Summer Glau

◎简  介 

  悠远的未来,人类分开不胜负荷的地球,在新的星系延续了文化,那些星系中心的星球组成同盟,不竭尝试将偏僻的蛮荒星球归入势力范围。少女瑞娃(Summer Glau 饰)在同盟的这一政策下被革新成为感受灵敏、身手强健的战役机械。瑞娃之兄西蒙将其救出,带到了前抵抗构造成员——马尔 (Nathan Fillion 饰)的运输飞船——“安好号”上。另一方面,同盟议会为避免瑞娃能够把握的情报外泄,派脱手段狠毒的特使追索不休。马尔一行因瑞娃的战役形式被同盟叫醒而屡次堕入险境,船员们不能不在毫在理性的宇宙掠夺者和同盟的阻击中艰难前往边沿之地——摩兰达,在那边,埋藏着一段同盟不愿示人的罪行往事……
  本片为电视剧集《Firefly》的后续和终局,获2006年土星奖最好女配角等专业嘉奖。



  1. Video
  2. ID                                       : 1
  3. Format                                   : AVC
  4. Format/Info                              : Advanced Video Codec
  5. Format profile                           : [url=mailto:High@L4.1]High@L4.1[/url]
  6. Format settings                          : CABAC / 5 Ref Frames
  7. Format settings, CABAC                   : Yes
  8. Format settings, RefFrames               : 5 frames
  9. Codec ID                                 : V_MPEG4/ISO/AVC
  10. Duration                                 : 1 h 59 min
  11. Bit rate                                 : 9 578 kb/s
  12. Width                                    : 1 920 pixels
  13. Height                                   : 816 pixels
  14. Display aspect ratio                     : 2.35:1
  15. Frame rate mode                          : Constant
  16. Frame rate                               : 23.976 (24000/1001) FPS
  17. Color space                              : YUV
  18. Chroma subsampling                       : 4:2:0
  19. Bit depth                                : 8 bits
  20. Scan type                                : Progressive
  21. Bits/(Pixel*Frame)                       : 0.255
  22. Stream size                              : 7.96GB (85%)
  23. Writing library                          : x264 core 148 r2665 a01e339
  24. Encoding settings                        : cabac=1 / ref=5 / deblock=1:0:0 / analyse=0x3:0x113 / me=umh / subme=8 / psy=1 / psy_rd=1.00:0.00 / mixed_ref=1 / me_range=16 / chroma_me=1 / trellis=1 / 8x8dct=1 / cqm=0 / deadzone=21,11 / fast_pskip=1 / chroma_qp_offset=-2 / threads=12 / lookahead_threads=2 / sliced_threads=0 / nr=0 / decimate=1 / interlaced=0 / bluray_compat=0 / constrained_intra=0 / bframes=3 / b_pyramid=2 / b_adapt=2 / b_bias=0 / direct=3 / weightb=1 / open_gop=0 / weightp=2 / keyint=240 / keyint_min=23 / scenecut=40 / intra_refresh=0 / rc_lookahead=50 / rc=crf / mbtree=1 / crf=19.0 / qcomp=0.60 / qpmin=0 / qpmax=69 / qpstep=4 / vbv_maxrate=62500 / vbv_bufsize=78125 / crf_max=0.0 / nal_hrd=none / filler=0 / ip_ratio=1.40 / aq=1:1.00
  25. Default                                  : Yes
  26. Forced                                   : No

  27. Audio
  28. ID                                       : 2
  29. Format                                   : DTS
  30. Format/Info                              : Digital Theater Systems
  31. Mode                                     : 16
  32. Format settings, Endianness              : Big
  33. Codec ID                                 : A_DTS
  34. Duration                                 : 1 h 59 min
  35. Bit rate mode                            : Constant
  36. Bit rate                                 : 1 509 kb/s
  37. Channel(s)                               : 6 channels
  38. Channel positions                        : Front: L C R, Side: L R, LFE
  39. Sampling rate                            : 48.0 kHz
  40. Frame rate                               : 93.750 FPS (512 SPF)
  41. Bit depth                                : 24 bits
  42. Compression mode                         : Lossy
  43. Stream size                              : 1.25GB (13%)
  44. Language                                 : English
  45. Default                                  : Yes
  46. Forced                                   : No

  47. Text #1
  48. ID                                       : 3
  49. Format                                   : PGS
  50. Muxing mode                              : zlib
  51. Codec ID                                 : S_HDMV/PGS
  52. Codec ID/Info                            : Picture based subtitle format used on BDs/HD-DVDs
  53. Duration                                 : 1 h 52 min
  54. Bit rate                                 : 12.2 kb/s
  55. Count of elements                        : 3288
  56. Stream size                              : 9.88 MiB (0%)
  57. Language                                 : English
  58. Default                                  : No
  59. Forced                                   : No

  60. Text #2
  61. ID                                       : 4
  62. Format                                   : PGS
  63. Muxing mode                              : zlib
  64. Codec ID                                 : S_HDMV/PGS
  65. Codec ID/Info                            : Picture based subtitle format used on BDs/HD-DVDs
  66. Duration                                 : 1 h 52 min
  67. Bit rate                                 : 9 957 b/s
  68. Count of elements                        : 2671
  69. Stream size                              : 8.04 MiB (0%)
  70. Language                                 : Spanish
  71. Default                                  : No
  72. Forced                                   : No

  73. Text #3
  74. ID                                       : 5
  75. Format                                   : PGS
  76. Muxing mode                              : zlib
  77. Codec ID                                 : S_HDMV/PGS
  78. Codec ID/Info                            : Picture based subtitle format used on BDs/HD-DVDs
  79. Duration                                 : 1 h 52 min
  80. Bit rate                                 : 10.1 kb/s
  81. Count of elements                        : 2671
  82. Stream size                              : 8.12 MiB (0%)
  83. Language                                 : French
  84. Default                                  : No
  85. Forced                                   : No

  86. Text #4
  87. ID                                       : 6
  88. Format                                   : PGS
  89. Muxing mode                              : zlib
  90. Codec ID                                 : S_HDMV/PGS
  91. Codec ID/Info                            : Picture based subtitle format used on BDs/HD-DVDs
  92. Duration                                 : 1 h 52 min
  93. Bit rate                                 : 9 151 b/s
  94. Count of elements                        : 2752
  95. Stream size                              : 7.39 MiB (0%)
  96. Language                                 : Japanese
  97. Default                                  : No
  98. Forced                                   : No

  99. Text #5
  100. ID                                       : 7
  101. Format                                   : PGS
  102. Muxing mode                              : zlib
  103. Codec ID                                 : S_HDMV/PGS
  104. Codec ID/Info                            : Picture based subtitle format used on BDs/HD-DVDs
  105. Duration                                 : 1 h 58 min
  106. Bit rate                                 : 10.7 kb/s
  107. Count of elements                        : 2683
  108. Stream size                              : 9.11 MiB (0%)
  109. Language                                 : German
  110. Default                                  : No
  111. Forced                                   : No

  112. Text #6
  113. ID                                       : 8
  114. Format                                   : PGS
  115. Muxing mode                              : zlib
  116. Codec ID                                 : S_HDMV/PGS
  117. Codec ID/Info                            : Picture based subtitle format used on BDs/HD-DVDs
  118. Duration                                 : 1 h 58 min
  119. Bit rate                                 : 9 588 b/s
  120. Count of elements                        : 2683
  121. Stream size                              : 8.13 MiB (0%)
  122. Language                                 : Italian
  123. Default                                  : No
  124. Forced                                   : No

  125. Text #7
  126. ID                                       : 9
  127. Format                                   : PGS
  128. Muxing mode                              : zlib
  129. Codec ID                                 : S_HDMV/PGS
  130. Codec ID/Info                            : Picture based subtitle format used on BDs/HD-DVDs
  131. Duration                                 : 1 h 58 min
  132. Bit rate                                 : 8 130 b/s
  133. Count of elements                        : 2683
  134. Stream size                              : 6.89 MiB (0%)
  135. Language                                 : Dutch
  136. Default                                  : No
  137. Forced                                   : No

  138. Text #8
  139. ID                                       : 10
  140. Format                                   : PGS
  141. Muxing mode                              : zlib
  142. Codec ID                                 : S_HDMV/PGS
  143. Codec ID/Info                            : Picture based subtitle format used on BDs/HD-DVDs
  144. Duration                                 : 1 h 58 min
  145. Bit rate                                 : 9 438 b/s
  146. Count of elements                        : 2683
  147. Stream size                              : 8.00 MiB (0%)
  148. Language                                 : Portuguese
  149. Default                                  : No
  150. Forced                                   : No

  151. Text #9
  152. ID                                       : 11
  153. Format                                   : PGS
  154. Muxing mode                              : zlib
  155. Codec ID                                 : S_HDMV/PGS
  156. Codec ID/Info                            : Picture based subtitle format used on BDs/HD-DVDs
  157. Duration                                 : 1 h 58 min
  158. Bit rate                                 : 9 545 b/s
  159. Count of elements                        : 2683
  160. Stream size                              : 8.09 MiB (0%)
  161. Language                                 : Danish
  162. Default                                  : No
  163. Forced                                   : No

  164. Text #10
  165. ID                                       : 12
  166. Format                                   : PGS
  167. Muxing mode                              : zlib
  168. Codec ID                                 : S_HDMV/PGS
  169. Codec ID/Info                            : Picture based subtitle format used on BDs/HD-DVDs
  170. Duration                                 : 1 h 58 min
  171. Bit rate                                 : 8 501 b/s
  172. Count of elements                        : 2683
  173. Stream size                              : 7.21 MiB (0%)
  174. Language                                 : Norwegian
  175. Default                                  : No
  176. Forced                                   : No

  177. Text #11
  178. ID                                       : 13
  179. Format                                   : PGS
  180. Muxing mode                              : zlib
  181. Codec ID                                 : S_HDMV/PGS
  182. Codec ID/Info                            : Picture based subtitle format used on BDs/HD-DVDs
  183. Duration                                 : 1 h 58 min
  184. Bit rate                                 : 7 894 b/s
  185. Count of elements                        : 2683
  186. Stream size                              : 6.69 MiB (0%)
  187. Language                                 : Finnish
  188. Default                                  : No
  189. Forced                                   : No

  190. Text #12
  191. ID                                       : 14
  192. Format                                   : PGS
  193. Muxing mode                              : zlib
  194. Codec ID                                 : S_HDMV/PGS
  195. Codec ID/Info                            : Picture based subtitle format used on BDs/HD-DVDs
  196. Duration                                 : 1 h 58 min
  197. Bit rate                                 : 8 589 b/s
  198. Count of elements                        : 2683
  199. Stream size                              : 7.28 MiB (0%)
  200. Language                                 : Swedish
  201. Default                                  : No
  202. Forced                                   : No

  203. Text #13
  204. ID                                       : 15
  205. Format                                   : PGS
  206. Muxing mode                              : zlib
  207. Codec ID                                 : S_HDMV/PGS
  208. Codec ID/Info                            : Picture based subtitle format used on BDs/HD-DVDs
  209. Duration                                 : 1 h 58 min
  210. Bit rate                                 : 9 868 b/s
  211. Count of elements                        : 2691
  212. Stream size                              : 8.36 MiB (0%)
  213. Language                                 : Greek
  214. Default                                  : No
  215. Forced                                   : No

  216. Text #14
  217. ID                                       : 16
  218. Format                                   : PGS
  219. Muxing mode                              : zlib
  220. Codec ID                                 : S_HDMV/PGS
  221. Codec ID/Info                            : Picture based subtitle format used on BDs/HD-DVDs
  222. Duration                                 : 1 h 58 min
  223. Bit rate                                 : 6 108 b/s
  224. Count of elements                        : 2682
  225. Stream size                              : 5.18 MiB (0%)
  226. Language                                 : Korean
  227. Default                                  : No
  228. Forced                                   : No

  229. Text #15
  230. ID                                       : 17
  231. Format                                   : PGS
  232. Muxing mode                              : zlib
  233. Codec ID                                 : S_HDMV/PGS
  234. Codec ID/Info                            : Picture based subtitle format used on BDs/HD-DVDs
  235. Duration                                 : 1 h 58 min
  236. Bit rate                                 : 10.3 kb/s
  237. Count of elements                        : 2683
  238. Stream size                              : 8.69 MiB (0%)
  239. Language                                 : Chinese
  240. Default                                  : No
  241. Forced                                   : No




复制代码
复制代码
075857ydk9d79qrnyjt79n.jpg





回复

使用道具 举报

蓝光币
404
发表于 2018-1-25 09:40:10 | 显示全部楼层
谢谢楼主的无私奉献
回复

使用道具 举报

蓝光币
1108
发表于 2019-7-19 20:20:46 | 显示全部楼层

楼主太厉害了!楼主,电影应该很好看我觉得蓝光电影网真是个好地方!
回复

使用道具 举报

蓝光币
804
发表于 2020-7-30 00:38:46 | 显示全部楼层
挺不错的科幻片,谢谢分享
回复

使用道具 举报

懒得打字嘛,点击右侧快捷回复 【右侧内容,后台自定义】
您需要登录后才可以回帖 登录 | 立即加入

本版积分规则

Archiver| |网站地图

Copyright © 2024 Comsenz Inc. Powered by 蓝光电影网

本站内容由用户自主分享和转载自互联网,转载目的在于传递更多信息,并不代表本网赞同其观点和对其真实性负责。

如有侵权、违反国家法律政策行为,请联系我们,我们会第一时间及时清除和处理!

举报反馈邮箱:4k1080.com@gmail.com

快速回复 返回顶部 返回列表