找回密码

查看: 3297|回复: 6

星际迷航2:暗黑无界/星际迷航12:驶入黑暗 Star.Trek.Into.Darkness.2013.2160p.BluRay.x264.8bit.SDR.DTS-HD.MA.TrueHD.7.1.Atmos-SWTYBLZ 50.01GB

[复制链接]
蓝光币
1992
发表于 2017-12-20 00:18:04 | 显示全部楼层 |阅读模式
214906c8z383lo1ozx8lo8.jpg
◎译  名 星际迷航2:暗黑无界/星际迷航12:驶入黑暗/星际观光12:进入黑暗/星空奇遇记12:黑域时空/星际争霸战12:暗黑无界/星舰奇航记12/星舰迷航记12
◎片  名 Star Trek Into Darkness
◎年  代 2013
◎产  地 美国
◎类  别 行动/科幻/冒险
◎语  言 英语/克林贡语
◎上映日期 2013-05-16(美国)/2013-05-28(中国大陆)
◎IMDb评分  7.8/10 from 427,113 users
◎IMDb链接  http://www.imdb.com/title/tt1408101/
◎豆瓣评分 7.9/10 from 149,680 users
◎豆瓣链接 https://movie.douban.com/subject/3642843/
◎片  长 132分钟
◎导  演 J·J·艾布拉姆斯 J.J. Abrams
◎主  演 克里斯·派恩 Chris Pine
      扎克瑞·昆图 Zachary Quinto
      佐伊·索尔达娜 Zoe Saldana
      本尼迪克特·康伯巴奇 Benedict Cumberbatch
      西蒙·佩吉 Simon Pegg
      安东·尤金 Anton Yelchin
      卡尔·厄本 Karl Urban
      约翰·赵 John Cho
      布鲁斯·格林伍德 Bruce Greenwood
      布兰登·诺曼 Brendan Norman
      爱丽丝·伊芙 Alice Eve
      克里斯·海姆斯沃斯 Chris Hemsworth

◎简  介

  在尼比鲁星球探查时代,企业号舰长柯克(克里斯·派恩Chris Pine 饰)为救援史波克(扎克瑞·昆图 Zachary Quinto 饰)采纳了轻举妄动的行为,几近危及全舰队员的生命,他也为此支出价格。未几,柯克官复原职,而伦敦发生一路灭亡跨越四十人的可骇攻击事务。该事务的始作俑者约翰·哈里森(本尼迪克特·康伯巴奇 Benedict Cumberbatch 饰)正来自同盟内部。尔后他驾驶飞机攻击了高层会议,柯克最为恭敬的派克将军不幸遇难。为了阻止哈里森的外逃诡计,柯克重新率领企业号出发追击。危机重重的旅途,他和舰员、朋友之间的信赖也遭到庞大考验。
  当他们终极找到哈里森,才终究知晓他的实在身份,以及伦敦攻击事务背后的诡计和内幕……

◎获奖情况

  第86届奥斯卡金像奖  (2014)
  最好视觉结果(提名) Ben Grossmann / 帕特里克·图巴赫 / 罗杰·盖耶特 / Burt Dalton

  第41届动画安妮奖  (2014)
  最好真人电影动画结果(提名)

  第23届MTV电影奖  (2014)
  MTV电影奖 最好反派(提名) 本尼迪克特·康伯巴奇

  第12届美国视觉结果协会奖  (2014)
  最好殊效电影视觉结果(提名) Ben Grossmann / Ron Ames / 罗杰·盖耶特 / Luke O'Byrne
  最好电影模子(提名) Bruce Holcomb / Ron Woodall / Tom Fejes

  第19届美国批评家挑选电影奖  (2014)
  最好视觉结果(提名)
  最好行动片(提名)
  最好科幻/可骇片(提名)

  第17届好莱坞电影奖  (2013)
  年度电影 J·J·艾布拉姆斯

  第13届凤凰城影评人协会奖  (2013)
  最好视觉结果(提名)
  最好特技表演(提名)

  第15届美国青少年挑选奖  (2013)
  最好暑期电影男演员(提名) 克里斯·派恩
  最好暑期电影女演员(提名) 佐伊·索尔达娜

  第4届豆瓣电影鑫像奖  (2014)
  鑫豆单元 最好科幻/行动片(提名)



  1. Video
  2. ID                                       : 1
  3. Format                                   : AVC
  4. Format/Info                              : Advanced Video Codec
  5. Format profile                           : [url=mailto:High@L5.1]High@L5.1[/url]
  6. Format settings                          : CABAC / 5 Ref Frames
  7. Format settings, CABAC                   : Yes
  8. Format settings, RefFrames               : 5 frames
  9. Codec ID                                 : V_MPEG4/ISO/AVC
  10. Duration                                 : 2 h 12 min
  11. Bit rate                                 : 44.1 Mb/s
  12. Width                                    : 3 840 pixels
  13. Height                                   : 2 160 pixels
  14. Display aspect ratio                     : 16:9
  15. Frame rate mode                          : Constant
  16. Frame rate                               : 23.976 (24000/1001) FPS
  17. Color space                              : YUV
  18. Chroma subsampling                       : 4:2:0
  19. Bit depth                                : 8 bits
  20. Scan type                                : Progressive
  21. Bits/(Pixel*Frame)                       : 0.222
  22. Stream size                              : 40.7GB (82%)
  23. Title                                    : Star.Trek.Into.Darkness.2013.2160p.BluRay.x264.8bit.SDR.DTS-HD.MA.TrueHD.7.1.Atmos-SWTYBLZ
  24. Writing library                          : x264 core 148 r2748 97eaef2
  25. Encoding settings                        : cabac=1 / ref=5 / deblock=1:-1:-1 / analyse=0x3:0x113 / me=umh / subme=10 / psy=1 / psy_rd=1.00:0.15 / mixed_ref=1 / me_range=48 / chroma_me=1 / trellis=2 / 8x8dct=1 / cqm=0 / deadzone=21,11 / fast_pskip=1 / chroma_qp_offset=-3 / threads=67 / lookahead_threads=5 / sliced_threads=0 / nr=0 / decimate=0 / interlaced=0 / bluray_compat=0 / constrained_intra=0 / bframes=3 / b_pyramid=2 / b_adapt=2 / b_bias=0 / direct=3 / weightb=1 / open_gop=0 / weightp=2 / keyint=250 / keyint_min=23 / scenecut=40 / intra_refresh=0 / rc_lookahead=50 / rc=crf / mbtree=1 / crf=18.0 / qcomp=0.60 / qpmin=0 / qpmax=69 / qpstep=4 / ip_ratio=1.40 / aq=1:1.00
  26. Default                                  : Yes
  27. Forced                                   : No

  28. Audio #1
  29. ID                                       : 2
  30. Format                                   : TrueHD
  31. Format profile                           : TrueHD+Atmos / TrueHD
  32. Codec ID                                 : A_TRUEHD
  33. Duration                                 : 2 h 12 min
  34. Bit rate mode                            : Variable
  35. Bit rate                                 : 4 811 kb/s
  36. Maximum bit rate                         : 8 238 kb/s
  37. Channel(s)                               : Object Based / 8 channels
  38. Channel positions                        : Object Based / Front: L C R, Side: L R, Back: L R, LFE
  39. Sampling rate                            :  / 48.0 kHz
  40. Frame rate                               : 1 200.000 FPS (40 SPF)
  41. Compression mode                         : Lossless
  42. Stream size                              : 4.44GB (9%)
  43. Title                                    : Star.Trek.Into.Darkness.2013.2160p.BluRay.x264.8bit.SDR.DTS-HD.MA.TrueHD.7.1.Atmos-SWTYBLZ
  44. Language                                 : English
  45. Default                                  : Yes
  46. Forced                                   : No

  47. Audio #2
  48. ID                                       : 3
  49. Format                                   : DTS
  50. Format/Info                              : Digital Theater Systems
  51. Format profile                           : MA / Core
  52. Codec ID                                 : A_DTS
  53. Duration                                 : 2 h 12 min
  54. Bit rate mode                            : Variable / Constant
  55. Bit rate                                 : 3 840 kb/s / 1 509 kb/s
  56. Channel(s)                               : 8 channels / 6 channels
  57. Channel positions                        : Front: L C R, Side: L R, Back: L R, LFE / Front: L C R, Side: L R, LFE
  58. Sampling rate                            : 48.0 kHz
  59. Frame rate                               : 93.750 FPS (512 SPF)
  60. Bit depth                                : 24 bits
  61. Compression mode                         : Lossless / Lossy
  62. Stream size                              : 3.57GB (7%)
  63. Title                                    : Star.Trek.Into.Darkness.2013.2160p.BluRay.x264.8bit.SDR.DTS-HD.MA.TrueHD.7.1.Atmos-SWTYBLZ
  64. Language                                 : English
  65. Default                                  : No
  66. Forced                                   : No

  67. Audio #3
  68. ID                                       : 4
  69. Format                                   : AC-3
  70. Format/Info                              : Audio Coding 3
  71. Codec ID                                 : A_AC3
  72. Duration                                 : 2 h 12 min
  73. Bit rate mode                            : Constant
  74. Bit rate                                 : 640 kb/s
  75. Channel(s)                               : 6 channels
  76. Channel positions                        : Front: L C R, Side: L R, LFE
  77. Sampling rate                            : 48.0 kHz
  78. Frame rate                               : 31.250 FPS (1536 SPF)
  79. Bit depth                                : 16 bits
  80. Compression mode                         : Lossy
  81. Stream size                              : 605 MiB (1%)
  82. Title                                    : Star.Trek.Into.Darkness.2013.2160p.BluRay.x264.8bit.SDR.DTS-HD.MA.TrueHD.7.1.Atmos-SWTYBLZ
  83. Language                                 : English
  84. Service kind                             : Complete Main
  85. Default                                  : No
  86. Forced                                   : No

  87. Text #1
  88. ID                                       : 5
  89. Format                                   : UTF-8
  90. Codec ID                                 : S_TEXT/UTF8
  91. Codec ID/Info                            : UTF-8 Plain Text
  92. Duration                                 : 2 h 1 min
  93. Bit rate                                 : 67 b/s
  94. Count of elements                        : 1763
  95. Stream size                              : 59.9 KiB (0%)
  96. Title                                    : English-SRT
  97. Language                                 : English
  98. Default                                  : Yes
  99. Forced                                   : No

  100. Text #2
  101. ID                                       : 6
  102. Format                                   : PGS
  103. Muxing mode                              : zlib
  104. Codec ID                                 : S_HDMV/PGS
  105. Codec ID/Info                            : Picture based subtitle format used on BDs/HD-DVDs
  106. Duration                                 : 2 h 1 min
  107. Bit rate                                 : 40.1 kb/s
  108. Count of elements                        : 3508
  109. Stream size                              : 34.9 MiB (0%)
  110. Title                                    : English-PGS
  111. Language                                 : English
  112. Default                                  : No
  113. Forced                                   : No

  114. Text #3
  115. ID                                       : 7
  116. Format                                   : PGS
  117. Muxing mode                              : zlib
  118. Codec ID                                 : S_HDMV/PGS
  119. Codec ID/Info                            : Picture based subtitle format used on BDs/HD-DVDs
  120. Duration                                 : 2 h 2 min
  121. Bit rate                                 : 45.3 kb/s
  122. Count of elements                        : 4006
  123. Stream size                              : 39.6 MiB (0%)
  124. Title                                    : English-SDH-PGS
  125. Language                                 : English
  126. Default                                  : No
  127. Forced                                   : No

  128. Text #4
  129. ID                                       : 8
  130. Format                                   : PGS
  131. Muxing mode                              : zlib
  132. Codec ID                                 : S_HDMV/PGS
  133. Codec ID/Info                            : Picture based subtitle format used on BDs/HD-DVDs
  134. Duration                                 : 2 h 11 min
  135. Bit rate                                 : 40.0 kb/s
  136. Count of elements                        : 3540
  137. Stream size                              : 37.5 MiB (0%)
  138. Title                                    : German-PGS
  139. Language                                 : German
  140. Default                                  : No
  141. Forced                                   : No

  142. Menu
  143. 00:00:00.000                             : en:Chapter 1
  144. 00:10:20.369                             : en:Chapter 2
  145. 00:19:21.493                             : en:Chapter 3
  146. 00:30:03.968                             : en:Chapter 4
  147. 00:40:09.115                             : en:Chapter 5
  148. 00:46:05.262                             : en:Chapter 6
  149. 00:56:38.228                             : en:Chapter 7
  150. 01:06:35.783                             : en:Chapter 8
  151. 01:12:55.662                             : en:Chapter 9
  152. 01:22:45.752                             : en:Chapter 10
  153. 01:30:54.740                             : en:Chapter 11
  154. 01:38:36.368                             : en:Chapter 12
  155. 01:47:09.548                             : en:Chapter 13
  156. 01:54:17.141                             : en:Chapter 14
  157. 01:59:20.653                             : en:Chapter 15
  158. 02:03:18.307                             : en:Chapter 16

复制代码
复制代码
214908ug55czkxuubrkr6z.png 214910vp1gl1uurgb2og8r.png 214912ecpibfrrihzh6zjk.png 214914l5wh8g01z1idk00p.png 214916fvmxm55mxazfbog5.png 214917jfqfqpjllb7jujjo.png 214919u7o6779ykie7h77y.png






回复

使用道具 举报

懒得打字嘛,点击右侧快捷回复 【右侧内容,后台自定义】
您需要登录后才可以回帖 登录 | 立即加入

本版积分规则

Archiver| |网站地图

Copyright © 2024 Comsenz Inc. Powered by 蓝光电影网

本站内容由用户自主分享和转载自互联网,转载目的在于传递更多信息,并不代表本网赞同其观点和对其真实性负责。

如有侵权、违反国家法律政策行为,请联系我们,我们会第一时间及时清除和处理!

举报反馈邮箱:4k1080.com@gmail.com

快速回复 返回顶部 返回列表