找回密码

查看: 3629|回复: 7

林中小屋/尸营旅舍 The.Cabin.in.the.Woods.2012.2160p.BluRay.REMUX.HEVC.DTS-HD.MA.TrueHD.7.1.Atmos-FGT 60.39GB

[复制链接]
蓝光币
1992
发表于 2017-12-20 10:39:54 | 显示全部楼层 |阅读模式
005149vwt12q6nv9t10t29.jpg
◎译  名 林中小屋/尸营客店
◎片  名 The Cabin in the Woods
◎年  代 2012
◎产  地 美国
◎类  别 笑剧/悬疑/可骇
◎语  言 英语/日语
◎上映日期 2012-03-09(西南偏南电影节)/2012-04-13(美国)
◎IMDb评分  7.0/10 from 308,616 users
◎IMDb链接  http://www.imdb.com/title/tt1259521/
◎豆瓣评分 7.4/10 from 117,061 users
◎豆瓣链接 https://movie.douban.com/subject/3143676/
◎片  长 95分钟
◎导  演 德鲁·高达 Drew Goddard
◎主  演 克里斯汀 康奈利 Kristen Connolly
      理查·詹金斯 Richard Jenkins
      弗兰·克朗茨 Fran Kranz
      布莱德利·惠特福德 Bradley Whitford
      杰西·威廉姆斯 Jesse Williams
      克里斯·海姆斯沃斯 Chris Hemsworth
      安娜·哈彻森 Anna Hutchison
      西格妮·韦弗 Sigourney Weaver
      艾米·阿克 Amy Acker
      布莱恩·J·怀特 Brian J. White

◎简  介

  在一个明媚的日子里,同在一所大学的荷登(杰西·威廉姆斯 Jesse Williams 饰)、马提(弗兰·克朗茨 Fran Kranz 饰)、茱尔丝(安娜·哈彻森 Anna Hutchison 饰)、戴娜(克里斯汀·康奈利 Kristen Connolly 饰)以及科特(克里斯·海姆斯沃斯 Chris Hemsworth 饰)等5人驱车前往位于深山老林的小木屋中度假。他们不晓得的是,自己的一举一动都在一个奥秘机构的监视之下,甚至会自觉不自觉依照那群人的指导进入圈套。“无意”当中,戴娜用拉丁文念出一段咒语,在此以后,长逝土壤之下的丧尸爬了出来,对年轻人们展开血腥大屠杀。而镜头的另一边,奥秘机构的成员喜滋滋看着镜头前的一切。
  蒙昧的年轻人们,为了一个奥秘的目标必须死去……


  1. Video #1
  2. ID                                       : 1
  3. Format                                   : HEVC
  4. Format/Info                              : High Efficiency Video Coding
  5. Format profile                           : Main [email]10@L5.1[/email]@High
  6. Codec ID                                 : V_MPEGH/ISO/HEVC
  7. Duration                                 : 1 h 35 min
  8. Bit rate                                 : 72.8 Mb/s
  9. Width                                    : 3 840 pixels
  10. Height                                   : 2 160 pixels
  11. Display aspect ratio                     : 16:9
  12. Frame rate mode                          : Constant
  13. Frame rate                               : 23.976 (24000/1001) FPS
  14. Color space                              : YUV
  15. Chroma subsampling                       : 4:2:0 (Type 2)
  16. Bit depth                                : 10 bits
  17. Bits/(Pixel*Frame)                       : 0.366
  18. Stream size                              : 48.3GB (80%)
  19. Title                                    : The.Cabin.in.the.Woods.2012.2160p.BluRay.REMUX.HEVC.DTS-HD.MA.TrueHD.7.1.Atmos-FGT
  20. Default                                  : Yes
  21. Forced                                   : No
  22. Color range                              : Limited
  23. Color primaries                          : BT.2020
  24. Transfer characteristics                 : PQ
  25. Matrix coefficients                      : BT.2020 non-constant
  26. Mastering display color primaries        : R: x=0.680000 y=0.320000, G: x=0.265000 y=0.690000, B: x=0.150000 y=0.060000, White point: x=0.312700 y=0.329000
  27. Mastering display luminance              : min: 0.0050 cd/m2, max: 1000.0000 cd/m2
  28. Maximum Content Light Level              : 1000 cd/m2
  29. Maximum Frame-Average Light Level        : 239 cd/m2

  30. Video #2
  31. ID                                       : 2
  32. Format                                   : HEVC
  33. Format/Info                              : High Efficiency Video Coding
  34. Format profile                           : Main [email]10@L5.1[/email]@High
  35. Codec ID                                 : V_MPEGH/ISO/HEVC
  36. Duration                                 : 1 h 35 min
  37. Bit rate                                 : 7 786 kb/s
  38. Width                                    : 1 920 pixels
  39. Height                                   : 1 080 pixels
  40. Display aspect ratio                     : 16:9
  41. Frame rate mode                          : Constant
  42. Frame rate                               : 23.976 (24000/1001) FPS
  43. Color space                              : YUV
  44. Chroma subsampling                       : 4:2:0 (Type 2)
  45. Bit depth                                : 10 bits
  46. Bits/(Pixel*Frame)                       : 0.157
  47. Stream size                              : 5.17GB (9%)
  48. Title                                    : The.Cabin.in.the.Woods.2012.2160p.BluRay.REMUX.HEVC.DTS-HD.MA.TrueHD.7.1.Atmos-FGT
  49. Default                                  : No
  50. Forced                                   : No
  51. Color range                              : Limited
  52. Color primaries                          : BT.2020
  53. Transfer characteristics                 : PQ
  54. Matrix coefficients                      : BT.2020 non-constant
  55. Mastering display color primaries        : R: x=0.680000 y=0.320000, G: x=0.265000 y=0.690000, B: x=0.150000 y=0.060000, White point: x=0.312700 y=0.329000
  56. Mastering display luminance              : min: 0.0050 cd/m2, max: 1000.0000 cd/m2

  57. Audio #1
  58. ID                                       : 3
  59. Format                                   : TrueHD
  60. Format profile                           : TrueHD+Atmos / TrueHD
  61. Codec ID                                 : A_TRUEHD
  62. Duration                                 : 1 h 35 min
  63. Bit rate mode                            : Variable
  64. Bit rate                                 : 4 432 kb/s
  65. Maximum bit rate                         : 8 064 kb/s
  66. Channel(s)                               : Object Based / 8 channels
  67. Channel positions                        : Object Based / Front: L C R, Side: L R, Back: L R, LFE
  68. Sampling rate                            :  / 48.0 kHz
  69. Frame rate                               : 1 200.000 FPS (40 SPF)
  70. Compression mode                         : Lossless
  71. Delay relative to video                  : 1 ms
  72. Stream size                              : 2.94GB (5%)
  73. Title                                    : The.Cabin.in.the.Woods.2012.2160p.BluRay.REMUX.HEVC.DTS-HD.MA.TrueHD.7.1.Atmos-FGT
  74. Language                                 : English
  75. Default                                  : Yes
  76. Forced                                   : No

  77. Audio #2
  78. ID                                       : 4
  79. Format                                   : DTS
  80. Format/Info                              : Digital Theater Systems
  81. Format profile                           : MA / Core
  82. Codec ID                                 : A_DTS
  83. Duration                                 : 1 h 35 min
  84. Bit rate mode                            : Variable / Constant
  85. Bit rate                                 : 4 160 kb/s / 1 509 kb/s
  86. Channel(s)                               : 8 channels / 6 channels
  87. Channel positions                        : Front: L C R, Side: L R, Back: L R, LFE / Front: L C R, Side: L R, LFE
  88. Sampling rate                            : 48.0 kHz
  89. Frame rate                               : 93.750 FPS (512 SPF)
  90. Bit depth                                : 24 bits
  91. Compression mode                         : Lossless / Lossy
  92. Stream size                              : 2.76GB (5%)
  93. Title                                    : The.Cabin.in.the.Woods.2012.2160p.BluRay.REMUX.HEVC.DTS-HD.MA.TrueHD.7.1.Atmos-FGT
  94. Language                                 : English
  95. Default                                  : No
  96. Forced                                   : No

  97. Audio #3
  98. ID                                       : 5
  99. Format                                   : AC-3
  100. Format/Info                              : Audio Coding 3
  101. Codec ID                                 : A_AC3
  102. Duration                                 : 1 h 35 min
  103. Bit rate mode                            : Constant
  104. Bit rate                                 : 640 kb/s
  105. Channel(s)                               : 6 channels
  106. Channel positions                        : Front: L C R, Side: L R, LFE
  107. Sampling rate                            : 48.0 kHz
  108. Frame rate                               : 31.250 FPS (1536 SPF)
  109. Bit depth                                : 16 bits
  110. Compression mode                         : Lossy
  111. Delay relative to video                  : 1 ms
  112. Stream size                              : 435 MiB (1%)
  113. Title                                    : The.Cabin.in.the.Woods.2012.2160p.BluRay.REMUX.HEVC.DTS-HD.MA.TrueHD.7.1.Atmos-FGT
  114. Language                                 : English
  115. Service kind                             : Complete Main
  116. Default                                  : No
  117. Forced                                   : No

  118. Audio #4
  119. ID                                       : 6
  120. Format                                   : AC-3
  121. Format/Info                              : Audio Coding 3
  122. Codec ID                                 : A_AC3
  123. Duration                                 : 1 h 35 min
  124. Bit rate mode                            : Constant
  125. Bit rate                                 : 224 kb/s
  126. Channel(s)                               : 2 channels
  127. Channel positions                        : Front: L R
  128. Sampling rate                            : 48.0 kHz
  129. Frame rate                               : 31.250 FPS (1536 SPF)
  130. Bit depth                                : 16 bits
  131. Compression mode                         : Lossy
  132. Delay relative to video                  : 23 ms
  133. Stream size                              : 152 MiB (0%)
  134. Title                                    : The.Cabin.in.the.Woods.2012.2160p.BluRay.REMUX.HEVC.DTS-HD.MA.TrueHD.7.1.Atmos-FGT
  135. Language                                 : English
  136. Service kind                             : Complete Main
  137. Default                                  : No
  138. Forced                                   : No

  139. Audio #5
  140. ID                                       : 7
  141. Format                                   : AC-3
  142. Format/Info                              : Audio Coding 3
  143. Codec ID                                 : A_AC3
  144. Duration                                 : 1 h 35 min
  145. Bit rate mode                            : Constant
  146. Bit rate                                 : 640 kb/s
  147. Channel(s)                               : 6 channels
  148. Channel positions                        : Front: L C R, Side: L R, LFE
  149. Sampling rate                            : 48.0 kHz
  150. Frame rate                               : 31.250 FPS (1536 SPF)
  151. Bit depth                                : 16 bits
  152. Compression mode                         : Lossy
  153. Delay relative to video                  : 23 ms
  154. Stream size                              : 435 MiB (1%)
  155. Title                                    : The.Cabin.in.the.Woods.2012.2160p.BluRay.REMUX.HEVC.DTS-HD.MA.TrueHD.7.1.Atmos-FGT
  156. Language                                 : French
  157. Service kind                             : Complete Main
  158. Default                                  : No
  159. Forced                                   : No

  160. Audio #6
  161. ID                                       : 8
  162. Format                                   : AC-3
  163. Format/Info                              : Audio Coding 3
  164. Codec ID                                 : A_AC3
  165. Duration                                 : 1 h 35 min
  166. Bit rate mode                            : Constant
  167. Bit rate                                 : 192 kb/s
  168. Channel(s)                               : 2 channels
  169. Channel positions                        : Front: L R
  170. Sampling rate                            : 48.0 kHz
  171. Frame rate                               : 31.250 FPS (1536 SPF)
  172. Bit depth                                : 16 bits
  173. Compression mode                         : Lossy
  174. Delay relative to video                  : 250 ms
  175. Stream size                              : 131 MiB (0%)
  176. Title                                    : The.Cabin.in.the.Woods.2012.2160p.BluRay.REMUX.HEVC.DTS-HD.MA.TrueHD.7.1.Atmos-FGT
  177. Language                                 : English
  178. Service kind                             : Complete Main
  179. Default                                  : No
  180. Forced                                   : No

  181. Text #1
  182. ID                                       : 9
  183. Format                                   : PGS
  184. Muxing mode                              : zlib
  185. Codec ID                                 : S_HDMV/PGS
  186. Codec ID/Info                            : Picture based subtitle format used on BDs/HD-DVDs
  187. Duration                                 : 1 h 28 min
  188. Bit rate                                 : 30.1 kb/s
  189. Count of elements                        : 1968
  190. Stream size                              : 19.1 MiB (0%)
  191. Title                                    : English-PGS
  192. Language                                 : English
  193. Default                                  : Yes
  194. Forced                                   : No

  195. Text #2
  196. ID                                       : 10
  197. Format                                   : PGS
  198. Muxing mode                              : zlib
  199. Codec ID                                 : S_HDMV/PGS
  200. Codec ID/Info                            : Picture based subtitle format used on BDs/HD-DVDs
  201. Duration                                 : 1 h 28 min
  202. Bit rate                                 : 33.4 kb/s
  203. Count of elements                        : 2216
  204. Stream size                              : 21.1 MiB (0%)
  205. Title                                    : English-SDH-PGS
  206. Language                                 : English
  207. Default                                  : No
  208. Forced                                   : No

  209. Text #3
  210. ID                                       : 11
  211. Format                                   : PGS
  212. Muxing mode                              : zlib
  213. Codec ID                                 : S_HDMV/PGS
  214. Codec ID/Info                            : Picture based subtitle format used on BDs/HD-DVDs
  215. Duration                                 : 1 h 28 min
  216. Bit rate                                 : 29.2 kb/s
  217. Count of elements                        : 1984
  218. Stream size                              : 18.4 MiB (0%)
  219. Title                                    : Spanish-PGS
  220. Language                                 : Spanish
  221. Default                                  : No
  222. Forced                                   : No

  223. Text #4
  224. ID                                       : 12
  225. Format                                   : PGS
  226. Muxing mode                              : zlib
  227. Codec ID                                 : S_HDMV/PGS
  228. Codec ID/Info                            : Picture based subtitle format used on BDs/HD-DVDs
  229. Duration                                 : 1 h 27 min
  230. Bit rate                                 : 178 b/s
  231. Count of elements                        : 14
  232. Stream size                              : 114 KiB (0%)
  233. Title                                    : French-PGS
  234. Language                                 : French
  235. Default                                  : No
  236. Forced                                   : No

  237. Menu
  238. 00:00:00.000                             : en:Chapter 1
  239. 00:05:42.425                             : en:Chapter 2
  240. 00:12:31.709                             : en:Chapter 3
  241. 00:18:40.077                             : en:Chapter 4
  242. 00:24:22.502                             : en:Chapter 5
  243. 00:29:27.140                             : en:Chapter 6
  244. 00:35:02.642                             : en:Chapter 7
  245. 00:41:40.164                             : en:Chapter 8
  246. 00:46:43.759                             : en:Chapter 9
  247. 00:50:57.804                             : en:Chapter 10
  248. 00:54:43.822                             : en:Chapter 11
  249. 01:06:49.130                             : en:Chapter 12
  250. 01:12:50.115                             : en:Chapter 13
  251. 01:16:45.976                             : en:Chapter 14
  252. 01:21:34.014                             : en:Chapter 15
  253. 01:26:59.505                             : en:Chapter 16



复制代码
复制代码
005149arkqqikiqfhkuzcu.png 005150irkl4vrrt244lf6w.png 005152yjpfjg5rydyiztrq.png 005153xxt1xpy8xyihzjhm.png 005154lozfd1fsdd09o01n.png 005155y5szliulu88siis1.png





回复

使用道具 举报

懒得打字嘛,点击右侧快捷回复 【右侧内容,后台自定义】
您需要登录后才可以回帖 登录 | 立即加入

本版积分规则

Archiver| |网站地图

Copyright © 2024 Comsenz Inc. Powered by 蓝光电影网

本站内容由用户自主分享和转载自互联网,转载目的在于传递更多信息,并不代表本网赞同其观点和对其真实性负责。

如有侵权、违反国家法律政策行为,请联系我们,我们会第一时间及时清除和处理!

举报反馈邮箱:4k1080.com@gmail.com

快速回复 返回顶部 返回列表