找回密码

查看: 2581|回复: 1

E.T.外星人/外星人E.T. E.T.the.Extra-Terrestrial.1982.2160p.BluRay.REMUX.HEVC.DTS-X.7.1-FGT 51.08GB

[复制链接]
蓝光币
1982
发表于 2017-12-20 10:40:41 | 显示全部楼层 |阅读模式
005223bqpggfyf4p2nycgz.jpg
◎译  名 E.T.外星人/外星人E.T.
◎片  名 E.T.: The Extra-Terrestrial
◎年  代 1982
◎产  地 美国
◎类  别 剧情/科幻
◎语  言 英语
◎上映日期 1982-05-26(戛纳电影节)/1982-06-11(美国)
◎IMDb评分  7.9/10 from 309,728 users
◎IMDb链接  http://www.imdb.com/title/tt0083866/
◎豆瓣评分 8.5/10 from 150,337 users
◎豆瓣链接 https://movie.douban.com/subject/1294638/
◎片  长 115分钟/120分钟(extended version)
◎导  演 Steven Spielberg
◎主  演 Henry Thomas
      Dee Wallace
      Robert MacNaughton
      Drew Barrymore
      Peter Coyote

◎简  介

  小埃利奥特(亨利托马斯)发现一个意外走失的小外星人,他静静的收留了小外星人,并把他先容给自己的哥哥和妹妹。孩子们与外星人友爱的相处,给他吃巧克力,带他去郊外寻觅家人留下的痕迹,并为小外星人的各种特异功用兴奋不已。渐渐的埃利奥特与外星人之间构成了某种奇妙的联系,跨越了言语相同的障碍。
  可是未几,外星人的存在被大人们知晓,无情的追捕行动展开了。ET被抓进尝试室,小埃利奥特也一病不起。孩子们愤慨了,他们自觉构造起来,救援外星人。埃利奥特也在心灵的感化下苏醒过来,加入救援行动。他们能成功么?


  1. Video
  2. ID                                       : 1
  3. Format                                   : HEVC
  4. Format/Info                              : High Efficiency Video Coding
  5. Format profile                           : Main [email]10@L5.1[/email]@High
  6. Codec ID                                 : V_MPEGH/ISO/HEVC
  7. Duration                                 : 1 h 54 min
  8. Bit rate                                 : 54.0 Mb/s
  9. Width                                    : 3 840 pixels
  10. Height                                   : 2 160 pixels
  11. Display aspect ratio                     : 16:9
  12. Frame rate mode                          : Constant
  13. Frame rate                               : 23.976 (24000/1001) FPS
  14. Color space                              : YUV
  15. Chroma subsampling                       : 4:2:0 (Type 2)
  16. Bit depth                                : 10 bits
  17. Bits/(Pixel*Frame)                       : 0.271
  18. Stream size                              : 43.1GB (84%)
  19. Title                                    : E.T.the.Extra-Terrestrial.1982.2160p.BluRay.REMUX.HEVC.DTS-X.7.1-FGT
  20. Writing library                          : ATEME Titan File 3.8.3 (4.8.3.0)
  21. Default                                  : Yes
  22. Forced                                   : No
  23. Color range                              : Limited
  24. Color primaries                          : BT.2020
  25. Transfer characteristics                 : PQ
  26. Matrix coefficients                      : BT.2020 non-constant
  27. Mastering display color primaries        : R: x=0.680000 y=0.320000, G: x=0.265000 y=0.690000, B: x=0.150000 y=0.060000, White point: x=0.312700 y=0.329000
  28. Mastering display luminance              : min: 0.0050 cd/m2, max: 1000.0000 cd/m2
  29. Maximum Content Light Level              : 1000 cd/m2
  30. Maximum Frame-Average Light Level        : 148 cd/m2

  31. Audio #1
  32. ID                                       : 2
  33. Format                                   : DTS
  34. Format/Info                              : Digital Theater Systems
  35. Format profile                           : X / MA / Core
  36. Codec ID                                 : A_DTS
  37. Duration                                 : 1 h 54 min
  38. Bit rate mode                            : Variable / Variable / Constant
  39. Bit rate                                 : 5 910 kb/s / 5 910 kb/s / 1 509 kb/s
  40. Channel(s)                               : Object Based / 8 channels / 6 channels
  41. Channel positions                        : Object Based / Front: L C R, Side: L R, Back: L R, LFE / Front: L C R, Side: L R, LFE
  42. Sampling rate                            :  / 48.0 kHz / 48.0 kHz
  43. Frame rate                               : 93.750 FPS (512 SPF)
  44. Bit depth                                :  / 24 bits / 24 bits
  45. Compression mode                         :  / Lossless / Lossy
  46. Stream size                              : 4.73GB (9%)
  47. Title                                    : E.T.the.Extra-Terrestrial.1982.2160p.BluRay.REMUX.HEVC.DTS-X.7.1-FGT
  48. Language                                 : English
  49. Default                                  : Yes
  50. Forced                                   : No

  51. Audio #2
  52. ID                                       : 3
  53. Format                                   : DTS
  54. Format/Info                              : Digital Theater Systems
  55. Codec ID                                 : A_DTS
  56. Duration                                 : 1 h 54 min
  57. Bit rate mode                            : Constant
  58. Bit rate                                 : 447 kb/s
  59. Channel(s)                               : 2 channels
  60. Channel positions                        : Front: L R
  61. Sampling rate                            : 48.0 kHz
  62. Frame rate                               : 93.750 FPS (512 SPF)
  63. Bit depth                                : 24 bits
  64. Compression mode                         : Lossy
  65. Stream size                              : 366 MiB (1%)
  66. Title                                    : E.T.the.Extra-Terrestrial.1982.2160p.BluRay.REMUX.HEVC.DTS-X.7.1-FGT
  67. Language                                 : English
  68. Default                                  : No
  69. Forced                                   : No

  70. Audio #3
  71. ID                                       : 4
  72. Format                                   : DTS
  73. Format/Info                              : Digital Theater Systems
  74. Codec ID                                 : A_DTS
  75. Duration                                 : 1 h 54 min
  76. Bit rate mode                            : Constant
  77. Bit rate                                 : 768 kb/s
  78. Channel(s)                               : 6 channels
  79. Channel positions                        : Front: L C R, Side: L R, LFE
  80. Sampling rate                            : 48.0 kHz
  81. Frame rate                               : 93.750 FPS (512 SPF)
  82. Bit depth                                : 24 bits
  83. Compression mode                         : Lossy
  84. Stream size                              : 629 MiB (1%)
  85. Title                                    : E.T.the.Extra-Terrestrial.1982.2160p.BluRay.REMUX.HEVC.DTS-X.7.1-FGT
  86. Language                                 : French
  87. Default                                  : No
  88. Forced                                   : No

  89. Audio #4
  90. ID                                       : 5
  91. Format                                   : DTS
  92. Format/Info                              : Digital Theater Systems
  93. Codec ID                                 : A_DTS
  94. Duration                                 : 1 h 54 min
  95. Bit rate mode                            : Constant
  96. Bit rate                                 : 768 kb/s
  97. Channel(s)                               : 6 channels
  98. Channel positions                        : Front: L C R, Side: L R, LFE
  99. Sampling rate                            : 48.0 kHz
  100. Frame rate                               : 93.750 FPS (512 SPF)
  101. Bit depth                                : 24 bits
  102. Compression mode                         : Lossy
  103. Stream size                              : 629 MiB (1%)
  104. Title                                    : E.T.the.Extra-Terrestrial.1982.2160p.BluRay.REMUX.HEVC.DTS-X.7.1-FGT
  105. Language                                 : Spanish
  106. Default                                  : No
  107. Forced                                   : No

  108. Audio #5
  109. ID                                       : 6
  110. Format                                   : DTS
  111. Format/Info                              : Digital Theater Systems
  112. Codec ID                                 : A_DTS
  113. Duration                                 : 1 h 54 min
  114. Bit rate mode                            : Constant
  115. Bit rate                                 : 768 kb/s
  116. Channel(s)                               : 6 channels
  117. Channel positions                        : Front: L C R, Side: L R, LFE
  118. Sampling rate                            : 48.0 kHz
  119. Frame rate                               : 93.750 FPS (512 SPF)
  120. Bit depth                                : 24 bits
  121. Compression mode                         : Lossy
  122. Stream size                              : 629 MiB (1%)
  123. Title                                    : E.T.the.Extra-Terrestrial.1982.2160p.BluRay.REMUX.HEVC.DTS-X.7.1-FGT
  124. Language                                 : Japanese
  125. Default                                  : No
  126. Forced                                   : No

  127. Audio #6
  128. ID                                       : 7
  129. Format                                   : DTS
  130. Format/Info                              : Digital Theater Systems
  131. Codec ID                                 : A_DTS
  132. Duration                                 : 1 h 54 min
  133. Bit rate mode                            : Constant
  134. Bit rate                                 : 447 kb/s
  135. Channel(s)                               : 2 channels
  136. Channel positions                        : Front: L R
  137. Sampling rate                            : 48.0 kHz
  138. Frame rate                               : 93.750 FPS (512 SPF)
  139. Bit depth                                : 24 bits
  140. Compression mode                         : Lossy
  141. Stream size                              : 366 MiB (1%)
  142. Title                                    : E.T.the.Extra-Terrestrial.1982.2160p.BluRay.REMUX.HEVC.DTS-X.7.1-FGT
  143. Language                                 : Japanese
  144. Default                                  : No
  145. Forced                                   : No

  146. Audio #7
  147. ID                                       : 8
  148. Format                                   : DTS
  149. Format/Info                              : Digital Theater Systems
  150. Codec ID                                 : A_DTS
  151. Duration                                 : 1 h 54 min
  152. Bit rate mode                            : Constant
  153. Bit rate                                 : 768 kb/s
  154. Channel(s)                               : 6 channels
  155. Channel positions                        : Front: L C R, Side: L R, LFE
  156. Sampling rate                            : 48.0 kHz
  157. Frame rate                               : 93.750 FPS (512 SPF)
  158. Bit depth                                : 24 bits
  159. Compression mode                         : Lossy
  160. Stream size                              : 629 MiB (1%)
  161. Title                                    : E.T.the.Extra-Terrestrial.1982.2160p.BluRay.REMUX.HEVC.DTS-X.7.1-FGT
  162. Language                                 : Portuguese
  163. Default                                  : No
  164. Forced                                   : No

  165. Text #1
  166. ID                                       : 9
  167. Format                                   : PGS
  168. Muxing mode                              : zlib
  169. Codec ID                                 : S_HDMV/PGS
  170. Codec ID/Info                            : Picture based subtitle format used on BDs/HD-DVDs
  171. Duration                                 : 1 h 47 min
  172. Bit rate                                 : 27.6 kb/s
  173. Count of elements                        : 2370
  174. Stream size                              : 21.3 MiB (0%)
  175. Title                                    : English-PGS
  176. Language                                 : English
  177. Default                                  : Yes
  178. Forced                                   : No

  179. Text #2
  180. ID                                       : 10
  181. Format                                   : PGS
  182. Muxing mode                              : zlib
  183. Codec ID                                 : S_HDMV/PGS
  184. Codec ID/Info                            : Picture based subtitle format used on BDs/HD-DVDs
  185. Duration                                 : 1 h 42 min
  186. Bit rate                                 : 19.3 kb/s
  187. Count of elements                        : 1818
  188. Stream size                              : 14.1 MiB (0%)
  189. Title                                    : French-PGS
  190. Language                                 : French
  191. Default                                  : No
  192. Forced                                   : No

  193. Text #3
  194. ID                                       : 11
  195. Format                                   : PGS
  196. Muxing mode                              : zlib
  197. Codec ID                                 : S_HDMV/PGS
  198. Codec ID/Info                            : Picture based subtitle format used on BDs/HD-DVDs
  199. Duration                                 : 1 h 40 min
  200. Bit rate                                 : 17.9 kb/s
  201. Count of elements                        : 1584
  202. Stream size                              : 12.9 MiB (0%)
  203. Title                                    : Spanish-PGS
  204. Language                                 : Spanish
  205. Default                                  : No
  206. Forced                                   : No

  207. Text #4
  208. ID                                       : 12
  209. Format                                   : PGS
  210. Muxing mode                              : zlib
  211. Codec ID                                 : S_HDMV/PGS
  212. Codec ID/Info                            : Picture based subtitle format used on BDs/HD-DVDs
  213. Duration                                 : 1 h 41 min
  214. Bit rate                                 : 12.6 kb/s
  215. Count of elements                        : 1533
  216. Stream size                              : 9.23 MiB (0%)
  217. Title                                    : Japanese-PGS
  218. Language                                 : Japanese
  219. Default                                  : No
  220. Forced                                   : No

  221. Text #5
  222. ID                                       : 13
  223. Format                                   : PGS
  224. Muxing mode                              : zlib
  225. Codec ID                                 : S_HDMV/PGS
  226. Codec ID/Info                            : Picture based subtitle format used on BDs/HD-DVDs
  227. Duration                                 : 1 h 54 min
  228. Bit rate                                 : 15.0 kb/s
  229. Count of elements                        : 1822
  230. Stream size                              : 12.2 MiB (0%)
  231. Title                                    : Portuguese-PGS
  232. Language                                 : Portuguese
  233. Default                                  : No
  234. Forced                                   : No

  235. Text #6
  236. ID                                       : 14
  237. Format                                   : PGS
  238. Muxing mode                              : zlib
  239. Codec ID                                 : S_HDMV/PGS
  240. Codec ID/Info                            : Picture based subtitle format used on BDs/HD-DVDs
  241. Duration                                 : 1 h 48 min
  242. Bit rate                                 : 15.9 kb/s
  243. Count of elements                        : 1812
  244. Stream size                              : 12.3 MiB (0%)
  245. Title                                    : Chinese-PGS
  246. Language                                 : Chinese
  247. Default                                  : No
  248. Forced                                   : No

  249. Text #7
  250. ID                                       : 15
  251. Format                                   : PGS
  252. Muxing mode                              : zlib
  253. Codec ID                                 : S_HDMV/PGS
  254. Codec ID/Info                            : Picture based subtitle format used on BDs/HD-DVDs
  255. Duration                                 : 1 h 32 min
  256. Bit rate                                 : 153 b/s
  257. Count of elements                        : 16
  258. Stream size                              : 104 KiB (0%)
  259. Title                                    : French-FORCED-PGS
  260. Language                                 : French
  261. Default                                  : No
  262. Forced                                   : No

  263. Text #8
  264. ID                                       : 16
  265. Format                                   : PGS
  266. Muxing mode                              : zlib
  267. Codec ID                                 : S_HDMV/PGS
  268. Codec ID/Info                            : Picture based subtitle format used on BDs/HD-DVDs
  269. Duration                                 : 21 min 37 s
  270. Bit rate                                 : 207 b/s
  271. Count of elements                        : 6
  272. Stream size                              : 32.9 KiB (0%)
  273. Title                                    : Spanish-FORCED-PGS
  274. Language                                 : Spanish
  275. Default                                  : No
  276. Forced                                   : No

  277. Text #9
  278. ID                                       : 17
  279. Format                                   : PGS
  280. Muxing mode                              : zlib
  281. Codec ID                                 : S_HDMV/PGS
  282. Codec ID/Info                            : Picture based subtitle format used on BDs/HD-DVDs
  283. Duration                                 : 2 s 669 ms
  284. Bit rate                                 : 42.4 kb/s
  285. Count of elements                        : 2
  286. Stream size                              : 13.8 KiB (0%)
  287. Title                                    : Japanese-FORCED-PGS
  288. Language                                 : Japanese
  289. Default                                  : No
  290. Forced                                   : No

  291. Text #10
  292. ID                                       : 18
  293. Format                                   : PGS
  294. Muxing mode                              : zlib
  295. Codec ID                                 : S_HDMV/PGS
  296. Codec ID/Info                            : Picture based subtitle format used on BDs/HD-DVDs
  297. Duration                                 : 1 h 54 min
  298. Bit rate                                 : 85 b/s
  299. Count of elements                        : 14
  300. Stream size                              : 71.5 KiB (0%)
  301. Title                                    : Portuguese-FORCED-PGS
  302. Language                                 : Portuguese
  303. Default                                  : No
  304. Forced                                   : No

  305. Menu
  306. 00:00:00.000                             : en:Chapter 1
  307. 00:04:49.956                             : en:Chapter 2
  308. 00:08:03.357                             : en:Chapter 3
  309. 00:09:57.096                             : en:Chapter 4
  310. 00:12:36.714                             : en:Chapter 5
  311. 00:19:24.580                             : en:Chapter 6
  312. 00:31:32.849                             : en:Chapter 7
  313. 00:36:52.293                             : en:Chapter 8
  314. 00:43:13.757                             : en:Chapter 9
  315. 00:50:34.197                             : en:Chapter 10
  316. 00:57:44.794                             : en:Chapter 11
  317. 01:00:34.130                             : en:Chapter 12
  318. 01:04:13.474                             : en:Chapter 13
  319. 01:11:30.577                             : en:Chapter 14
  320. 01:15:23.143                             : en:Chapter 15
  321. 01:23:37.345                             : en:Chapter 16
  322. 01:30:29.841                             : en:Chapter 17
  323. 01:35:41.902                             : en:Chapter 18
  324. 01:43:26.241                             : en:Chapter 19
  325. 01:50:34.919                             : en:Chapter 20



复制代码
复制代码
005224kzzbkblevqwl56jz.png 005225bl3r9gg999v3y1yy.png 005226bk304z0zgior85ov.png 005227xs88g0xf9fsfeeez.png 005228w0660k0h61jp0h1h.png 005230yfuf7cp9yz8ffaf9.png






回复

使用道具 举报

懒得打字嘛,点击右侧快捷回复 【右侧内容,后台自定义】
您需要登录后才可以回帖 登录 | 立即加入

本版积分规则

Archiver| |网站地图

Copyright © 2024 Comsenz Inc. Powered by 蓝光电影网

本站内容由用户自主分享和转载自互联网,转载目的在于传递更多信息,并不代表本网赞同其观点和对其真实性负责。

如有侵权、违反国家法律政策行为,请联系我们,我们会第一时间及时清除和处理!

举报反馈邮箱:4k1080.com@gmail.com

快速回复 返回顶部 返回列表