找回密码

查看: 2383|回复: 1

好人寥寥/义海雄风 A.Few.Good.Men.1992.2160p.BluRay.REMUX.HEVC.DTS-HD.MA.TrueHD.7.1.Atmos-FGT 56.94GB

[复制链接]
蓝光币
1984
发表于 2017-12-20 10:41:19 | 显示全部楼层 |阅读模式
005301r1jik45wuu3b44xf.jpg
◎译  名 好人寥寥/义海雄风
◎片  名 A Few Good Men
◎年  代 1992
◎产  地 美国
◎类  别 犯罪/剧情/悬疑/惊悚
◎语  言 英语
◎上映日期 1992-12-11
◎IMDb评分  7.7/10 from 198,201 users
◎IMDb链接  http://www.imdb.com/title/tt0104257/
◎豆瓣评分 7.9/10 from 7,328 users
◎豆瓣链接 https://movie.douban.com/subject/1295260/
◎片  长 138 分钟
◎导  演 Rob Reiner
◎主  演 Tom Cruise
      Jack Nicholson
      Demi Moore
      Kevin Bacon
      Kiefer Sutherland
      Kevin Pollak

◎简  介

  在美国驻古巴关达那摩湾的水兵基地,两名水兵陆战队员道森和多尼被控告杀戮了另一位流兵圣地亚哥。水兵律师丹尼尔·卡菲(汤姆·克鲁斯 Tom Cruise 饰)和助手山姆被派接手此桩案件,他们观察到圣地亚哥曾希望调离基地,还告发过道森。卡菲本想停止庭外调和,争取两年刑期。但是 两名流兵对峙自己无罪,他们对圣地亚哥的行为是履行下级给他们下达的“红色条规”。所谓红色条规,就是一种军官默许的由兵士私下停止的训诫条规。
  卡菲、山姆以及另一位女律师盖洛维(黛米·摩尔 Demi Moore 饰)组成辩方律师停止观察,而基地批示官杰塞普上校(杰克·尼科尔森 Jack Nicholson 饰)是本案的关键人物,他拒绝了圣地亚哥的调离申请,对他下达了“红色条规”,事后擅自篡改了飞翔记录。卡菲虽然晓得真相,却苦于证据不敷,这类情况下如果指证杰塞普上校还会给自己带来麻烦。这场关乎正义的诉讼案,会有一个怎样的成果?


  1. Video
  2. ID                                       : 1
  3. Format                                   : HEVC
  4. Format/Info                              : High Efficiency Video Coding
  5. Format profile                           : Main [email]10@L5.1[/email]@High
  6. Codec ID                                 : V_MPEGH/ISO/HEVC
  7. Duration                                 : 2 h 18 min
  8. Bit rate                                 : 47.8 Mb/s
  9. Width                                    : 3 840 pixels
  10. Height                                   : 2 160 pixels
  11. Display aspect ratio                     : 16:9
  12. Frame rate mode                          : Constant
  13. Frame rate                               : 23.976 (24000/1001) FPS
  14. Color space                              : YUV
  15. Chroma subsampling                       : 4:2:0 (Type 2)
  16. Bit depth                                : 10 bits
  17. Bits/(Pixel*Frame)                       : 0.240
  18. Stream size                              : 46.1GB (81%)
  19. Title                                    : A.Few.Good.Men.1992.2160p.BluRay.REMUX.HEVC.DTS-HD.MA.TrueHD.7.1.Atmos-FGT
  20. Default                                  : Yes
  21. Forced                                   : No
  22. Color range                              : Limited
  23. Color primaries                          : BT.2020
  24. Transfer characteristics                 : PQ
  25. Matrix coefficients                      : BT.2020 non-constant
  26. Mastering display color primaries        : R: x=0.680000 y=0.320000, G: x=0.265000 y=0.690000, B: x=0.150000 y=0.060000, White point: x=0.312700 y=0.329000
  27. Mastering display luminance              : min: 0.0050 cd/m2, max: 4000.0000 cd/m2
  28. Maximum Content Light Level              : 10000 cd/m2
  29. Maximum Frame-Average Light Level        : 424 cd/m2

  30. Audio #1
  31. ID                                       : 2
  32. Format                                   : TrueHD
  33. Format profile                           : TrueHD+Atmos / TrueHD
  34. Codec ID                                 : A_TRUEHD
  35. Duration                                 : 2 h 18 min
  36. Bit rate mode                            : Variable
  37. Bit rate                                 : 3 895 kb/s
  38. Maximum bit rate                         : 6 567 kb/s
  39. Channel(s)                               : Object Based / 8 channels
  40. Channel positions                        : Object Based / Front: L C R, Side: L R, Back: L R, LFE
  41. Sampling rate                            :  / 48.0 kHz
  42. Frame rate                               : 1 200.000 FPS (40 SPF)
  43. Compression mode                         : Lossless
  44. Stream size                              : 3.75GB (7%)
  45. Title                                    : A.Few.Good.Men.1992.2160p.BluRay.REMUX.HEVC.DTS-HD.MA.TrueHD.7.1.Atmos-FGT
  46. Language                                 : English
  47. Default                                  : Yes
  48. Forced                                   : No

  49. Audio #2
  50. ID                                       : 3
  51. Format                                   : DTS
  52. Format/Info                              : Digital Theater Systems
  53. Format profile                           : MA / Core
  54. Codec ID                                 : A_DTS
  55. Duration                                 : 2 h 18 min
  56. Bit rate mode                            : Variable / Constant
  57. Bit rate                                 : 3 246 kb/s / 1 509 kb/s
  58. Channel(s)                               : 8 channels / 6 channels
  59. Channel positions                        : Front: L C R, Side: L R, Back: L R, LFE / Front: L C R, Side: L R, LFE
  60. Sampling rate                            : 48.0 kHz
  61. Frame rate                               : 93.750 FPS (512 SPF)
  62. Bit depth                                : 24 bits
  63. Compression mode                         : Lossless / Lossy
  64. Stream size                              : 3.13GB (5%)
  65. Title                                    : A.Few.Good.Men.1992.2160p.BluRay.REMUX.HEVC.DTS-HD.MA.TrueHD.7.1.Atmos-FGT
  66. Language                                 : English
  67. Default                                  : No
  68. Forced                                   : No

  69. Audio #3
  70. ID                                       : 4
  71. Format                                   : AC-3
  72. Format/Info                              : Audio Coding 3
  73. Codec ID                                 : A_AC3
  74. Duration                                 : 2 h 18 min
  75. Bit rate mode                            : Constant
  76. Bit rate                                 : 640 kb/s
  77. Channel(s)                               : 6 channels
  78. Channel positions                        : Front: L C R, Side: L R, LFE
  79. Sampling rate                            : 48.0 kHz
  80. Frame rate                               : 31.250 FPS (1536 SPF)
  81. Bit depth                                : 16 bits
  82. Compression mode                         : Lossy
  83. Delay relative to video                  : 27 ms
  84. Stream size                              : 632 MiB (1%)
  85. Title                                    : A.Few.Good.Men.1992.2160p.BluRay.REMUX.HEVC.DTS-HD.MA.TrueHD.7.1.Atmos-FGT
  86. Language                                 : English
  87. Service kind                             : Complete Main
  88. Default                                  : No
  89. Forced                                   : No

  90. Audio #4
  91. ID                                       : 5
  92. Format                                   : AC-3
  93. Format/Info                              : Audio Coding 3
  94. Codec ID                                 : A_AC3
  95. Duration                                 : 2 h 18 min
  96. Bit rate mode                            : Constant
  97. Bit rate                                 : 192 kb/s
  98. Channel(s)                               : 2 channels
  99. Channel positions                        : Front: L R
  100. Sampling rate                            : 48.0 kHz
  101. Frame rate                               : 31.250 FPS (1536 SPF)
  102. Bit depth                                : 16 bits
  103. Compression mode                         : Lossy
  104. Delay relative to video                  : 15 ms
  105. Stream size                              : 190 MiB (0%)
  106. Title                                    : A.Few.Good.Men.1992.2160p.BluRay.REMUX.HEVC.DTS-HD.MA.TrueHD.7.1.Atmos-FGT
  107. Language                                 : French
  108. Service kind                             : Complete Main
  109. Default                                  : No
  110. Forced                                   : No

  111. Audio #5
  112. ID                                       : 6
  113. Format                                   : AC-3
  114. Format/Info                              : Audio Coding 3
  115. Codec ID                                 : A_AC3
  116. Duration                                 : 2 h 18 min
  117. Bit rate mode                            : Constant
  118. Bit rate                                 : 640 kb/s
  119. Channel(s)                               : 6 channels
  120. Channel positions                        : Front: L C R, Side: L R, LFE
  121. Sampling rate                            : 48.0 kHz
  122. Frame rate                               : 31.250 FPS (1536 SPF)
  123. Bit depth                                : 16 bits
  124. Compression mode                         : Lossy
  125. Delay relative to video                  : 15 ms
  126. Stream size                              : 632 MiB (1%)
  127. Title                                    : A.Few.Good.Men.1992.2160p.BluRay.REMUX.HEVC.DTS-HD.MA.TrueHD.7.1.Atmos-FGT
  128. Language                                 : Italian
  129. Service kind                             : Complete Main
  130. Default                                  : No
  131. Forced                                   : No

  132. Audio #6
  133. ID                                       : 7
  134. Format                                   : AC-3
  135. Format/Info                              : Audio Coding 3
  136. Codec ID                                 : A_AC3
  137. Duration                                 : 2 h 18 min
  138. Bit rate mode                            : Constant
  139. Bit rate                                 : 640 kb/s
  140. Channel(s)                               : 6 channels
  141. Channel positions                        : Front: L C R, Side: L R, LFE
  142. Sampling rate                            : 48.0 kHz
  143. Frame rate                               : 31.250 FPS (1536 SPF)
  144. Bit depth                                : 16 bits
  145. Compression mode                         : Lossy
  146. Delay relative to video                  : 15 ms
  147. Stream size                              : 632 MiB (1%)
  148. Title                                    : A.Few.Good.Men.1992.2160p.BluRay.REMUX.HEVC.DTS-HD.MA.TrueHD.7.1.Atmos-FGT
  149. Language                                 : Japanese
  150. Service kind                             : Complete Main
  151. Default                                  : No
  152. Forced                                   : No

  153. Audio #7
  154. ID                                       : 8
  155. Format                                   : AC-3
  156. Format/Info                              : Audio Coding 3
  157. Codec ID                                 : A_AC3
  158. Duration                                 : 2 h 18 min
  159. Bit rate mode                            : Constant
  160. Bit rate                                 : 640 kb/s
  161. Channel(s)                               : 6 channels
  162. Channel positions                        : Front: L C R, Side: L R, LFE
  163. Sampling rate                            : 48.0 kHz
  164. Frame rate                               : 31.250 FPS (1536 SPF)
  165. Bit depth                                : 16 bits
  166. Compression mode                         : Lossy
  167. Delay relative to video                  : 15 ms
  168. Stream size                              : 632 MiB (1%)
  169. Title                                    : A.Few.Good.Men.1992.2160p.BluRay.REMUX.HEVC.DTS-HD.MA.TrueHD.7.1.Atmos-FGT
  170. Language                                 : Portuguese
  171. Service kind                             : Complete Main
  172. Default                                  : No
  173. Forced                                   : No

  174. Audio #8
  175. ID                                       : 9
  176. Format                                   : AC-3
  177. Format/Info                              : Audio Coding 3
  178. Codec ID                                 : A_AC3
  179. Duration                                 : 2 h 18 min
  180. Bit rate mode                            : Constant
  181. Bit rate                                 : 384 kb/s
  182. Channel(s)                               : 6 channels
  183. Channel positions                        : Front: L C R, Side: L R, LFE
  184. Sampling rate                            : 48.0 kHz
  185. Frame rate                               : 31.250 FPS (1536 SPF)
  186. Bit depth                                : 16 bits
  187. Compression mode                         : Lossy
  188. Delay relative to video                  : 15 ms
  189. Stream size                              : 379 MiB (1%)
  190. Title                                    : A.Few.Good.Men.1992.2160p.BluRay.REMUX.HEVC.DTS-HD.MA.TrueHD.7.1.Atmos-FGT
  191. Language                                 : Spanish
  192. Service kind                             : Complete Main
  193. Default                                  : No
  194. Forced                                   : No

  195. Audio #9
  196. ID                                       : 10
  197. Format                                   : AC-3
  198. Format/Info                              : Audio Coding 3
  199. Codec ID                                 : A_AC3
  200. Duration                                 : 2 h 18 min
  201. Bit rate mode                            : Constant
  202. Bit rate                                 : 384 kb/s
  203. Channel(s)                               : 6 channels
  204. Channel positions                        : Front: L C R, Side: L R, LFE
  205. Sampling rate                            : 48.0 kHz
  206. Frame rate                               : 31.250 FPS (1536 SPF)
  207. Bit depth                                : 16 bits
  208. Compression mode                         : Lossy
  209. Delay relative to video                  : 15 ms
  210. Stream size                              : 379 MiB (1%)
  211. Title                                    : A.Few.Good.Men.1992.2160p.BluRay.REMUX.HEVC.DTS-HD.MA.TrueHD.7.1.Atmos-FGT
  212. Language                                 : Thai
  213. Service kind                             : Complete Main
  214. Default                                  : No
  215. Forced                                   : No

  216. Audio #10
  217. ID                                       : 11
  218. Format                                   : AC-3
  219. Format/Info                              : Audio Coding 3
  220. Codec ID                                 : A_AC3
  221. Duration                                 : 2 h 18 min
  222. Bit rate mode                            : Constant
  223. Bit rate                                 : 192 kb/s
  224. Channel(s)                               : 2 channels
  225. Channel positions                        : Front: L R
  226. Sampling rate                            : 48.0 kHz
  227. Frame rate                               : 31.250 FPS (1536 SPF)
  228. Bit depth                                : 16 bits
  229. Compression mode                         : Lossy
  230. Delay relative to video                  : 15 ms
  231. Stream size                              : 190 MiB (0%)
  232. Title                                    : A.Few.Good.Men.1992.2160p.BluRay.REMUX.HEVC.DTS-HD.MA.TrueHD.7.1.Atmos-FGT
  233. Language                                 : English
  234. Service kind                             : Complete Main
  235. Default                                  : No
  236. Forced                                   : No

  237. Text #1
  238. ID                                       : 12
  239. Format                                   : PGS
  240. Muxing mode                              : zlib
  241. Codec ID                                 : S_HDMV/PGS
  242. Codec ID/Info                            : Picture based subtitle format used on BDs/HD-DVDs
  243. Duration                                 : 2 h 14 min
  244. Bit rate                                 : 51.5 kb/s
  245. Count of elements                        : 3893
  246. Stream size                              : 49.4 MiB (0%)
  247. Title                                    : English-PGS
  248. Language                                 : English
  249. Default                                  : Yes
  250. Forced                                   : No

  251. Text #2
  252. ID                                       : 13
  253. Format                                   : PGS
  254. Muxing mode                              : zlib
  255. Codec ID                                 : S_HDMV/PGS
  256. Codec ID/Info                            : Picture based subtitle format used on BDs/HD-DVDs
  257. Duration                                 : 2 h 11 min
  258. Bit rate                                 : 51.1 kb/s
  259. Count of elements                        : 3665
  260. Stream size                              : 48.0 MiB (0%)
  261. Title                                    : English-SDH-PGS
  262. Language                                 : English
  263. Default                                  : No
  264. Forced                                   : No

  265. Text #3
  266. ID                                       : 14
  267. Format                                   : PGS
  268. Muxing mode                              : zlib
  269. Codec ID                                 : S_HDMV/PGS
  270. Codec ID/Info                            : Picture based subtitle format used on BDs/HD-DVDs
  271. Duration                                 : 2 h 14 min
  272. Bit rate                                 : 51.6 kb/s
  273. Count of elements                        : 3893
  274. Stream size                              : 49.5 MiB (0%)
  275. Title                                    : English-PGS
  276. Language                                 : English
  277. Default                                  : No
  278. Forced                                   : No

  279. Text #4
  280. ID                                       : 15
  281. Format                                   : PGS
  282. Muxing mode                              : zlib
  283. Codec ID                                 : S_HDMV/PGS
  284. Codec ID/Info                            : Picture based subtitle format used on BDs/HD-DVDs
  285. Duration                                 : 2 h 11 min
  286. Bit rate                                 : 51.2 kb/s
  287. Count of elements                        : 3709
  288. Stream size                              : 48.0 MiB (0%)
  289. Title                                    : English-SDH-PGS
  290. Language                                 : English
  291. Default                                  : No
  292. Forced                                   : No

  293. Text #5
  294. ID                                       : 16
  295. Format                                   : PGS
  296. Muxing mode                              : zlib
  297. Codec ID                                 : S_HDMV/PGS
  298. Codec ID/Info                            : Picture based subtitle format used on BDs/HD-DVDs
  299. Duration                                 : 2 h 13 min
  300. Bit rate                                 : 47.6 kb/s
  301. Count of elements                        : 4204
  302. Stream size                              : 45.3 MiB (0%)
  303. Title                                    : Chinese-PGS
  304. Language                                 : Chinese
  305. Default                                  : No
  306. Forced                                   : No

  307. Text #6
  308. ID                                       : 17
  309. Format                                   : PGS
  310. Muxing mode                              : zlib
  311. Codec ID                                 : S_HDMV/PGS
  312. Codec ID/Info                            : Picture based subtitle format used on BDs/HD-DVDs
  313. Duration                                 : 2 h 13 min
  314. Bit rate                                 : 47.4 kb/s
  315. Count of elements                        : 4292
  316. Stream size                              : 45.1 MiB (0%)
  317. Title                                    : Chinese-PGS
  318. Language                                 : Chinese
  319. Default                                  : No
  320. Forced                                   : No

  321. Text #7
  322. ID                                       : 18
  323. Format                                   : PGS
  324. Muxing mode                              : zlib
  325. Codec ID                                 : S_HDMV/PGS
  326. Codec ID/Info                            : Picture based subtitle format used on BDs/HD-DVDs
  327. Duration                                 : 2 h 17 min
  328. Bit rate                                 : 36.2 kb/s
  329. Count of elements                        : 2511
  330. Stream size                              : 35.5 MiB (0%)
  331. Title                                    : French-PGS
  332. Language                                 : French
  333. Default                                  : No
  334. Forced                                   : No

  335. Text #8
  336. ID                                       : 19
  337. Format                                   : PGS
  338. Muxing mode                              : zlib
  339. Codec ID                                 : S_HDMV/PGS
  340. Codec ID/Info                            : Picture based subtitle format used on BDs/HD-DVDs
  341. Duration                                 : 2 h 13 min
  342. Bit rate                                 : 45.2 kb/s
  343. Count of elements                        : 3454
  344. Stream size                              : 43.0 MiB (0%)
  345. Title                                    : Italian-PGS
  346. Language                                 : Italian
  347. Default                                  : No
  348. Forced                                   : No

  349. Text #9
  350. ID                                       : 20
  351. Format                                   : PGS
  352. Muxing mode                              : zlib
  353. Codec ID                                 : S_HDMV/PGS
  354. Codec ID/Info                            : Picture based subtitle format used on BDs/HD-DVDs
  355. Duration                                 : 2 h 13 min
  356. Bit rate                                 : 32.4 kb/s
  357. Count of elements                        : 3428
  358. Stream size                              : 30.8 MiB (0%)
  359. Title                                    : Japanese-PGS
  360. Language                                 : Japanese
  361. Default                                  : No
  362. Forced                                   : No

  363. Text #10
  364. ID                                       : 21
  365. Format                                   : PGS
  366. Muxing mode                              : zlib
  367. Codec ID                                 : S_HDMV/PGS
  368. Codec ID/Info                            : Picture based subtitle format used on BDs/HD-DVDs
  369. Duration                                 : 2 h 13 min
  370. Bit rate                                 : 34.5 kb/s
  371. Count of elements                        : 3728
  372. Stream size                              : 32.8 MiB (0%)
  373. Title                                    : Korean-PGS
  374. Language                                 : Korean
  375. Default                                  : No
  376. Forced                                   : No

  377. Text #11
  378. ID                                       : 22
  379. Format                                   : PGS
  380. Muxing mode                              : zlib
  381. Codec ID                                 : S_HDMV/PGS
  382. Codec ID/Info                            : Picture based subtitle format used on BDs/HD-DVDs
  383. Duration                                 : 2 h 13 min
  384. Bit rate                                 : 45.7 kb/s
  385. Count of elements                        : 3754
  386. Stream size                              : 43.5 MiB (0%)
  387. Title                                    : Portuguese-PGS
  388. Language                                 : Portuguese
  389. Default                                  : No
  390. Forced                                   : No

  391. Text #12
  392. ID                                       : 23
  393. Format                                   : PGS
  394. Muxing mode                              : zlib
  395. Codec ID                                 : S_HDMV/PGS
  396. Codec ID/Info                            : Picture based subtitle format used on BDs/HD-DVDs
  397. Duration                                 : 2 h 13 min
  398. Bit rate                                 : 46.4 kb/s
  399. Count of elements                        : 3988
  400. Stream size                              : 44.2 MiB (0%)
  401. Title                                    : Spanish-PGS
  402. Language                                 : Spanish
  403. Default                                  : No
  404. Forced                                   : No

  405. Text #13
  406. ID                                       : 24
  407. Format                                   : PGS
  408. Muxing mode                              : zlib
  409. Codec ID                                 : S_HDMV/PGS
  410. Codec ID/Info                            : Picture based subtitle format used on BDs/HD-DVDs
  411. Duration                                 : 2 h 13 min
  412. Bit rate                                 : 40.0 kb/s
  413. Count of elements                        : 3684
  414. Stream size                              : 38.1 MiB (0%)
  415. Title                                    : Thai-PGS
  416. Language                                 : Thai
  417. Default                                  : No
  418. Forced                                   : No

  419. Text #14
  420. ID                                       : 25
  421. Format                                   : PGS
  422. Muxing mode                              : zlib
  423. Codec ID                                 : S_HDMV/PGS
  424. Codec ID/Info                            : Picture based subtitle format used on BDs/HD-DVDs
  425. Duration                                 : 1 h 42 min
  426. Bit rate                                 : 84 b/s
  427. Count of elements                        : 8
  428. Stream size                              : 63.9 KiB (0%)
  429. Title                                    : French-PGS
  430. Language                                 : French
  431. Default                                  : No
  432. Forced                                   : No

  433. Text #15
  434. ID                                       : 26
  435. Format                                   : PGS
  436. Muxing mode                              : zlib
  437. Codec ID                                 : S_HDMV/PGS
  438. Codec ID/Info                            : Picture based subtitle format used on BDs/HD-DVDs
  439. Duration                                 : 1 h 51 min
  440. Bit rate                                 : 106 b/s
  441. Count of elements                        : 9
  442. Stream size                              : 86.7 KiB (0%)
  443. Title                                    : Japanese-PGS
  444. Language                                 : Japanese
  445. Default                                  : No
  446. Forced                                   : No

  447. Text #16
  448. ID                                       : 27
  449. Format                                   : PGS
  450. Muxing mode                              : zlib
  451. Codec ID                                 : S_HDMV/PGS
  452. Codec ID/Info                            : Picture based subtitle format used on BDs/HD-DVDs
  453. Duration                                 : 2 h 14 min
  454. Bit rate                                 : 55.4 kb/s
  455. Count of elements                        : 4113
  456. Stream size                              : 53.3 MiB (0%)
  457. Title                                    : English-COMMENTARY-PGS
  458. Language                                 : English
  459. Default                                  : No
  460. Forced                                   : No

  461. Text #17
  462. ID                                       : 28
  463. Format                                   : PGS
  464. Muxing mode                              : zlib
  465. Codec ID                                 : S_HDMV/PGS
  466. Codec ID/Info                            : Picture based subtitle format used on BDs/HD-DVDs
  467. Duration                                 : 2 h 14 min
  468. Bit rate                                 : 42.6 kb/s
  469. Count of elements                        : 3428
  470. Stream size                              : 41.0 MiB (0%)
  471. Title                                    : Italian-COMMENTARY-PGS
  472. Language                                 : Italian
  473. Default                                  : No
  474. Forced                                   : No

  475. Text #18
  476. ID                                       : 29
  477. Format                                   : PGS
  478. Muxing mode                              : zlib
  479. Codec ID                                 : S_HDMV/PGS
  480. Codec ID/Info                            : Picture based subtitle format used on BDs/HD-DVDs
  481. Duration                                 : 2 h 14 min
  482. Bit rate                                 : 10.1 kb/s
  483. Count of elements                        : 691
  484. Stream size                              : 9.70 MiB (0%)
  485. Title                                    : Japanese-COMMENTARY-PGS
  486. Language                                 : Japanese
  487. Default                                  : No
  488. Forced                                   : No

  489. Text #19
  490. ID                                       : 30
  491. Format                                   : PGS
  492. Muxing mode                              : zlib
  493. Codec ID                                 : S_HDMV/PGS
  494. Codec ID/Info                            : Picture based subtitle format used on BDs/HD-DVDs
  495. Duration                                 : 2 h 14 min
  496. Bit rate                                 : 36.9 kb/s
  497. Count of elements                        : 3969
  498. Stream size                              : 35.5 MiB (0%)
  499. Title                                    : Korean-COMMENTARY-PGS
  500. Language                                 : Korean
  501. Default                                  : No
  502. Forced                                   : No

  503. Text #20
  504. ID                                       : 31
  505. Format                                   : PGS
  506. Muxing mode                              : zlib
  507. Codec ID                                 : S_HDMV/PGS
  508. Codec ID/Info                            : Picture based subtitle format used on BDs/HD-DVDs
  509. Duration                                 : 2 h 14 min
  510. Bit rate                                 : 42.8 kb/s
  511. Count of elements                        : 3511
  512. Stream size                              : 41.2 MiB (0%)
  513. Title                                    : Spanish-COMMENTARY-PGS
  514. Language                                 : Spanish
  515. Default                                  : No
  516. Forced                                   : No

  517. Menu
  518. 00:00:00.000                             : en:Chapter 1
  519. 00:07:58.895                             : en:Chapter 2
  520. 00:16:32.157                             : en:Chapter 3
  521. 00:25:08.673                             : en:Chapter 4
  522. 00:40:06.737                             : en:Chapter 5
  523. 00:47:42.025                             : en:Chapter 6
  524. 00:57:11.302                             : en:Chapter 7
  525. 01:05:26.505                             : en:Chapter 8
  526. 01:13:03.712                             : en:Chapter 9
  527. 01:22:52.550                             : en:Chapter 10
  528. 01:26:20.133                             : en:Chapter 11
  529. 01:31:10.381                             : en:Chapter 12
  530. 01:39:52.820                             : en:Chapter 13
  531. 01:54:37.829                             : en:Chapter 14
  532. 02:02:41.228                             : en:Chapter 15
  533. 02:10:35.118                             : en:Chapter 16



复制代码
复制代码
005302ro3b3tkm43gqlt4q.png 005304eoywr4a49oyz4j97.png 005305h29ek9zxff2qpkkf.png 005306v3yb1l2maam4t1yn.png 005307r09cuyataq67zzca.png 005308bayhux66acsaambu.png






回复

使用道具 举报

懒得打字嘛,点击右侧快捷回复 【右侧内容,后台自定义】
您需要登录后才可以回帖 登录 | 立即加入

本版积分规则

Archiver| |网站地图

Copyright © 2024 Comsenz Inc. Powered by 蓝光电影网

本站内容由用户自主分享和转载自互联网,转载目的在于传递更多信息,并不代表本网赞同其观点和对其真实性负责。

如有侵权、违反国家法律政策行为,请联系我们,我们会第一时间及时清除和处理!

举报反馈邮箱:4k1080.com@gmail.com

快速回复 返回顶部 返回列表