找回密码

查看: 4273|回复: 3

代号47/刺客特攻47 Hitman.Agent.47.2015.2160p.BluRay.x264.8bit.SDR.DTS-HD.MA.7.1-SWTYBLZ 28.12GB

[复制链接]
蓝光币
1984
发表于 2017-12-20 10:44:00 | 显示全部楼层 |阅读模式
013754ol99uh39444epyvw.jpg
◎译  名 代号47/刺客特攻47
◎片  名 Hitman: Agent 47
◎年  代 2015
◎产  地 美国
◎类  别 行动/犯罪/惊悚
◎语  言 英语
◎上映日期 2015-08-21(美国)
◎IMDb评分  5.7/10 from 74,251 users
◎IMDb链接  http://www.imdb.com/title/tt2679042/
◎豆瓣评分 5.9/10 from 15,796 users
◎豆瓣链接 https://movie.douban.com/subject/21350962/
◎片  长 96分钟
◎导  演 亚历山大·巴赫 Aleksander Bach
◎主  演 鲁伯特·弗兰德 Rupert Friend
      扎克瑞·昆图 Zachary Quinto
      塞伦·希德 Ciarán Hinds
      托马斯·克莱舒曼 Thomas Kretschmann
      汉娜·韦尔 Hannah Ware
      丹·巴克达尔 Dan Bakkedahl
      埃米里奥·瑞弗拉 Emilio Rivera
      罗夫·凯尼斯 Rolf Kanies
      Michaela Caspar
      杨颖 Angelababy

◎简  介

  影片按照同名游戏改编,“代号47”(鲁伯特·弗兰德 Rupert Friend 饰)是奥秘杀手构造的头号杀手,他性情冷静,聪明过人,行动奥秘低调,历来没人晓得他的底细,只靠颈后位置的一个纹身条码识别身份。
  “代号47”既是罪行的化身,又是好心的使徒。他从不外问犯罪的真理 及意义,直到碰上一位惊为天人神祕女子卡蒂娅(汉娜·韦尔 Hannah Ware 饰),改写了他的命运,更使他遭到杀手构造的追杀,生命危在旦夕……



  1. Video
  2. ID                                       : 1
  3. Format                                   : AVC
  4. Format/Info                              : Advanced Video Codec
  5. Format profile                           : [email]High@L5.1[/email]
  6. Format settings                          : CABAC / 5 Ref Frames
  7. Format settings, CABAC                   : Yes
  8. Format settings, RefFrames               : 5 frames
  9. Codec ID                                 : V_MPEG4/ISO/AVC
  10. Duration                                 : 1 h 36 min
  11. Bit rate                                 : 35.2 Mb/s
  12. Width                                    : 3 840 pixels
  13. Height                                   : 1 608 pixels
  14. Display aspect ratio                     : 2.40:1
  15. Frame rate mode                          : Constant
  16. Frame rate                               : 23.976 (24000/1001) FPS
  17. Color space                              : YUV
  18. Chroma subsampling                       : 4:2:0
  19. Bit depth                                : 8 bits
  20. Scan type                                : Progressive
  21. Bits/(Pixel*Frame)                       : 0.238
  22. Stream size                              : 23.7GB (85%)
  23. Title                                    : Hitman.Agent.47.2015.2160p.BluRay.x264.8bit.SDR.DTS-HD.MA.7.1-SWTYBLZ
  24. Writing library                          : x264 core 148 r2748 97eaef2
  25. Encoding settings                        : cabac=1 / ref=5 / deblock=1:-1:-1 / analyse=0x3:0x113 / me=umh / subme=10 / psy=1 / psy_rd=1.00:0.15 / mixed_ref=1 / me_range=48 / chroma_me=1 / trellis=2 / 8x8dct=1 / cqm=0 / deadzone=21,11 / fast_pskip=1 / chroma_qp_offset=-3 / threads=50 / lookahead_threads=4 / sliced_threads=0 / nr=0 / decimate=0 / interlaced=0 / bluray_compat=0 / constrained_intra=0 / bframes=3 / b_pyramid=2 / b_adapt=2 / b_bias=0 / direct=3 / weightb=1 / open_gop=0 / weightp=2 / keyint=250 / keyint_min=23 / scenecut=40 / intra_refresh=0 / rc_lookahead=50 / rc=crf / mbtree=1 / crf=18.0 / qcomp=0.60 / qpmin=0 / qpmax=69 / qpstep=4 / ip_ratio=1.40 / aq=1:1.00
  26. Language                                 : English
  27. Default                                  : Yes
  28. Forced                                   : No

  29. Audio #1
  30. ID                                       : 2
  31. Format                                   : DTS
  32. Format/Info                              : Digital Theater Systems
  33. Format profile                           : MA / ES Matrix / Core
  34. Codec ID                                 : A_DTS
  35. Duration                                 : 1 h 36 min
  36. Bit rate mode                            : Variable / Constant / Constant
  37. Bit rate                                 : 5 308 kb/s / 1 509 kb/s / 1 509 kb/s
  38. Channel(s)                               : 8 channels / 7 channels / 6 channels
  39. Channel positions                        : Front: L C R, Side: L R, Back: L R, LFE / Front: L C R, Side: L R, Back: C, LFE / Front: L C R, Side: L R, LFE
  40. Sampling rate                            : 48.0 kHz
  41. Frame rate                               : 93.750 FPS (512 SPF)
  42. Bit depth                                : 24 bits
  43. Compression mode                         : Lossless / Lossy / Lossy
  44. Stream size                              : 3.57GB (13%)
  45. Title                                    : Hitman.Agent.47.2015.2160p.BluRay.x264.8bit.SDR.DTS-HD.MA.7.1-SWTYBLZ
  46. Language                                 : English
  47. Default                                  : Yes
  48. Forced                                   : No

  49. Audio #2
  50. ID                                       : 3
  51. Format                                   : AC-3
  52. Format/Info                              : Audio Coding 3
  53. Codec ID                                 : A_AC3
  54. Duration                                 : 1 h 36 min
  55. Bit rate mode                            : Constant
  56. Bit rate                                 : 640 kb/s
  57. Channel(s)                               : 6 channels
  58. Channel positions                        : Front: L C R, Side: L R, LFE
  59. Sampling rate                            : 48.0 kHz
  60. Frame rate                               : 31.250 FPS (1536 SPF)
  61. Bit depth                                : 16 bits
  62. Compression mode                         : Lossy
  63. Stream size                              : 441 MiB (2%)
  64. Title                                    : Hitman.Agent.47.2015.2160p.BluRay.x264.8bit.SDR.DTS-HD.MA.7.1-SWTYBLZ
  65. Language                                 : English
  66. Service kind                             : Complete Main
  67. Default                                  : No
  68. Forced                                   : No

  69. Text #1
  70. ID                                       : 4
  71. Format                                   : UTF-8
  72. Codec ID                                 : S_TEXT/UTF8
  73. Codec ID/Info                            : UTF-8 Plain Text
  74. Duration                                 : 1 h 30 min
  75. Bit rate                                 : 36 b/s
  76. Count of elements                        : 851
  77. Stream size                              : 24.5 KiB (0%)
  78. Title                                    : English-SRT
  79. Language                                 : English
  80. Default                                  : Yes
  81. Forced                                   : No

  82. Text #2
  83. ID                                       : 5
  84. Format                                   : PGS
  85. Muxing mode                              : zlib
  86. Codec ID                                 : S_HDMV/PGS
  87. Codec ID/Info                            : Picture based subtitle format used on BDs/HD-DVDs
  88. Duration                                 : 1 h 34 min
  89. Bit rate                                 : 27.3 kb/s
  90. Count of elements                        : 2222
  91. Stream size                              : 18.4 MiB (0%)
  92. Title                                    : English-PGS
  93. Language                                 : English
  94. Default                                  : No
  95. Forced                                   : No

  96. Text #3
  97. ID                                       : 6
  98. Format                                   : PGS
  99. Muxing mode                              : zlib
  100. Codec ID                                 : S_HDMV/PGS
  101. Codec ID/Info                            : Picture based subtitle format used on BDs/HD-DVDs
  102. Duration                                 : 1 h 35 min
  103. Bit rate                                 : 20.4 kb/s
  104. Count of elements                        : 1638
  105. Stream size                              : 14.0 MiB (0%)
  106. Title                                    : Spanish-PGS
  107. Language                                 : Spanish
  108. Default                                  : No
  109. Forced                                   : No

  110. Text #4
  111. ID                                       : 7
  112. Format                                   : PGS
  113. Muxing mode                              : zlib
  114. Codec ID                                 : S_HDMV/PGS
  115. Codec ID/Info                            : Picture based subtitle format used on BDs/HD-DVDs
  116. Duration                                 : 1 h 35 min
  117. Bit rate                                 : 16.5 kb/s
  118. Count of elements                        : 1608
  119. Stream size                              : 11.3 MiB (0%)
  120. Title                                    : French-PGS
  121. Language                                 : French
  122. Default                                  : No
  123. Forced                                   : No

  124. Text #5
  125. ID                                       : 8
  126. Format                                   : PGS
  127. Muxing mode                              : zlib
  128. Codec ID                                 : S_HDMV/PGS
  129. Codec ID/Info                            : Picture based subtitle format used on BDs/HD-DVDs
  130. Duration                                 : 1 h 35 min
  131. Bit rate                                 : 20.6 kb/s
  132. Count of elements                        : 1414
  133. Stream size                              : 14.1 MiB (0%)
  134. Title                                    : Danish-PGS
  135. Language                                 : Danish
  136. Default                                  : No
  137. Forced                                   : No

  138. Text #6
  139. ID                                       : 9
  140. Format                                   : PGS
  141. Muxing mode                              : zlib
  142. Codec ID                                 : S_HDMV/PGS
  143. Codec ID/Info                            : Picture based subtitle format used on BDs/HD-DVDs
  144. Duration                                 : 1 h 35 min
  145. Bit rate                                 : 18.0 kb/s
  146. Count of elements                        : 1452
  147. Stream size                              : 12.4 MiB (0%)
  148. Title                                    : Dutch-PGS
  149. Language                                 : Dutch
  150. Default                                  : No
  151. Forced                                   : No

  152. Text #7
  153. ID                                       : 10
  154. Format                                   : PGS
  155. Muxing mode                              : zlib
  156. Codec ID                                 : S_HDMV/PGS
  157. Codec ID/Info                            : Picture based subtitle format used on BDs/HD-DVDs
  158. Duration                                 : 1 h 35 min
  159. Bit rate                                 : 18.8 kb/s
  160. Count of elements                        : 1712
  161. Stream size                              : 12.9 MiB (0%)
  162. Title                                    : Finnish-PGS
  163. Language                                 : Finnish
  164. Default                                  : No
  165. Forced                                   : No

  166. Text #8
  167. ID                                       : 11
  168. Format                                   : PGS
  169. Muxing mode                              : zlib
  170. Codec ID                                 : S_HDMV/PGS
  171. Codec ID/Info                            : Picture based subtitle format used on BDs/HD-DVDs
  172. Duration                                 : 1 h 35 min
  173. Bit rate                                 : 21.8 kb/s
  174. Count of elements                        : 1718
  175. Stream size                              : 15.0 MiB (0%)
  176. Title                                    : German-PGS
  177. Language                                 : German
  178. Default                                  : No
  179. Forced                                   : No

  180. Text #9
  181. ID                                       : 12
  182. Format                                   : PGS
  183. Muxing mode                              : zlib
  184. Codec ID                                 : S_HDMV/PGS
  185. Codec ID/Info                            : Picture based subtitle format used on BDs/HD-DVDs
  186. Duration                                 : 1 h 35 min
  187. Bit rate                                 : 20.4 kb/s
  188. Count of elements                        : 1720
  189. Stream size                              : 14.0 MiB (0%)
  190. Title                                    : Italian-PGS
  191. Language                                 : Italian
  192. Default                                  : No
  193. Forced                                   : No

  194. Text #10
  195. ID                                       : 13
  196. Format                                   : PGS
  197. Muxing mode                              : zlib
  198. Codec ID                                 : S_HDMV/PGS
  199. Codec ID/Info                            : Picture based subtitle format used on BDs/HD-DVDs
  200. Duration                                 : 1 h 35 min
  201. Bit rate                                 : 14.1 kb/s
  202. Count of elements                        : 1582
  203. Stream size                              : 9.64 MiB (0%)
  204. Title                                    : Japanese-PGS
  205. Language                                 : Japanese
  206. Default                                  : No
  207. Forced                                   : No

  208. Text #11
  209. ID                                       : 14
  210. Format                                   : PGS
  211. Muxing mode                              : zlib
  212. Codec ID                                 : S_HDMV/PGS
  213. Codec ID/Info                            : Picture based subtitle format used on BDs/HD-DVDs
  214. Duration                                 : 1 h 18 min
  215. Bit rate                                 : 362 b/s
  216. Count of elements                        : 40
  217. Stream size                              : 209 KiB (0%)
  218. Title                                    : Japanese-PGS
  219. Language                                 : Japanese
  220. Default                                  : No
  221. Forced                                   : No

  222. Text #12
  223. ID                                       : 15
  224. Format                                   : PGS
  225. Muxing mode                              : zlib
  226. Codec ID                                 : S_HDMV/PGS
  227. Codec ID/Info                            : Picture based subtitle format used on BDs/HD-DVDs
  228. Duration                                 : 1 h 35 min
  229. Bit rate                                 : 19.6 kb/s
  230. Count of elements                        : 1710
  231. Stream size                              : 13.5 MiB (0%)
  232. Title                                    : Norwegian-PGS
  233. Language                                 : Norwegian
  234. Default                                  : No
  235. Forced                                   : No

  236. Text #13
  237. ID                                       : 16
  238. Format                                   : PGS
  239. Muxing mode                              : zlib
  240. Codec ID                                 : S_HDMV/PGS
  241. Codec ID/Info                            : Picture based subtitle format used on BDs/HD-DVDs
  242. Duration                                 : 1 h 35 min
  243. Bit rate                                 : 20.1 kb/s
  244. Count of elements                        : 1720
  245. Stream size                              : 13.8 MiB (0%)
  246. Title                                    : Swedish-PGS
  247. Language                                 : Swedish
  248. Default                                  : No
  249. Forced                                   : No

  250. Menu
  251. 00:00:00.000                             : en:Chapter 1
  252. 00:07:11.347                             : en:Chapter 2
  253. 00:09:02.959                             : en:Chapter 3
  254. 00:13:11.582                             : en:Chapter 4
  255. 00:16:21.605                             : en:Chapter 5
  256. 00:19:22.786                             : en:Chapter 6
  257. 00:24:43.815                             : en:Chapter 7
  258. 00:27:19.179                             : en:Chapter 8
  259. 00:30:18.691                             : en:Chapter 9
  260. 00:33:03.815                             : en:Chapter 10
  261. 00:38:18.713                             : en:Chapter 11
  262. 00:43:11.755                             : en:Chapter 12
  263. 00:46:53.435                             : en:Chapter 13
  264. 00:50:39.870                             : en:Chapter 14
  265. 00:54:02.530                             : en:Chapter 15
  266. 00:59:50.587                             : en:Chapter 16
  267. 01:06:01.749                             : en:Chapter 17
  268. 01:09:06.142                             : en:Chapter 18
  269. 01:13:23.190                             : en:Chapter 19
  270. 01:16:55.319                             : en:Chapter 20
  271. 01:21:15.745                             : en:Chapter 21
  272. 01:25:20.824                             : en:Chapter 22
  273. 01:28:06.155                             : en:Chapter 23
  274. 01:31:17.847                             : en:Chapter 24

复制代码
复制代码
013755mr6kogrjijozax5z.png 013756v366k1lx17wbxxw6.png 013757d17g3mtuz14pm75g.png 013757crrcjdc6d6a1a6a7.png 013758iqzmq0ana6sn0z5n.png 013759y9i6gqu79gotq7up.png






回复

使用道具 举报

蓝光币
1
发表于 2018-1-1 11:46:09 | 显示全部楼层
是部好电影
回复

使用道具 举报

蓝光币
1051
发表于 2021-10-16 10:34:01 | 显示全部楼层
谢谢您的分享!谢谢!
回复

使用道具 举报

蓝光币
0
发表于 2022-8-4 22:43:50 | 显示全部楼层

谢谢您的分享!谢谢!
回复

使用道具 举报

懒得打字嘛,点击右侧快捷回复 【右侧内容,后台自定义】
您需要登录后才可以回帖 登录 | 立即加入

本版积分规则

Archiver| |网站地图

Copyright © 2024 Comsenz Inc. Powered by 蓝光电影网

本站内容由用户自主分享和转载自互联网,转载目的在于传递更多信息,并不代表本网赞同其观点和对其真实性负责。

如有侵权、违反国家法律政策行为,请联系我们,我们会第一时间及时清除和处理!

举报反馈邮箱:4k1080.com@gmail.com

快速回复 返回顶部 返回列表