找回密码

查看: 3290|回复: 2

间谍同盟/同盟鹣鲽 Allied.2016.2160p.BluRay.REMUX.HEVC.DTS-HD.MA.5.1-FGT 54.87GB

[复制链接]
蓝光币
1992
发表于 2017-12-20 10:45:07 | 显示全部楼层 |阅读模式
021445qneeknud6qc5m74d.jpg
◎译  名 特务同盟/同盟鹣鲽
◎片  名 Allied
◎年  代 2016
◎产  地 美国/英国
◎类  别 剧情/行动/恋爱/战争
◎语  言 英语/法语
◎上映日期 2016-11-23(美国)/2016-11-30(中国大陆)
◎IMDb评分  7.1/10 from 101,373 users
◎IMDb链接  http://www.imdb.com/title/tt3640424/
◎豆瓣评分 7.0/10 from 34,712 users
◎豆瓣链接 https://movie.douban.com/subject/25978126/
◎片  长 124分钟
◎导  演 罗伯特·泽米吉斯 Robert Zemeckis
◎主  演 布拉德·皮特 Brad Pitt
      玛丽昂·歌迪亚 Marion Cotillard
      马修·古迪 Matthew Goode
      丽兹·卡潘 Lizzy Caplan
      夏洛特·霍普 Charlotte Hope
      拉菲·卡西迪 Raffey Cassidy
      杰瑞德·哈里斯 Jared Harris
      克里斯蒂安·鲁贝克 Christian Rubeck
      丹尼尔·贝茨 Daniel Betts
      安格斯·肯尼迪 Angus Kennedy
      贾森·马修森 Jason Matthewson
      大卫·邦纳维尔 David Bonneville

◎简  介

  1942年,卡萨布兰卡。盟军反情报奸细马克斯·瓦坦(布拉德·皮特 Brad Pitt 饰)拿取了在法国维希政府卧底玛丽安(玛丽昂·歌迪亚 Marion Cotillard 饰)的法国抵抗活动特务丈夫的身份。他发现玛丽何在伦敦的奥秘,而且发现他俩之间的关系酿成了假戏真做。在完成一个危险的北非使命以后,他们决议金盘洗手,成婚今后在伦敦起头了清净的生活。可是马克斯渐渐发现他的妻子能够是纳粹特务,他需要找出她实在的身份。


  1. Video
  2. ID                                       : 1
  3. Format                                   : HEVC
  4. Format/Info                              : High Efficiency Video Coding
  5. Format profile                           : Main [email]10@L5.1[/email]@High
  6. Codec ID                                 : V_MPEGH/ISO/HEVC
  7. Duration                                 : 2 h 4 min
  8. Bit rate                                 : 55.7 Mb/s
  9. Width                                    : 3 840 pixels
  10. Height                                   : 2 160 pixels
  11. Display aspect ratio                     : 16:9
  12. Frame rate mode                          : Constant
  13. Frame rate                               : 23.976 (24000/1001) FPS
  14. Color space                              : YUV
  15. Chroma subsampling                       : 4:2:0 (Type 2)
  16. Bit depth                                : 10 bits
  17. Bits/(Pixel*Frame)                       : 0.280
  18. Stream size                              : 48.5GB (88%)
  19. Title                                    : Allied.2016.2160p.BluRay.REMUX.HEVC.DTS-HD.MA.5.1-FGT
  20. Writing library                          : ATEME Titan File 3.7.8 (4.7.8.0)
  21. Default                                  : Yes
  22. Forced                                   : No
  23. Color range                              : Limited
  24. Color primaries                          : BT.2020
  25. Transfer characteristics                 : PQ
  26. Matrix coefficients                      : BT.2020 non-constant
  27. Mastering display color primaries        : R: x=0.680000 y=0.320000, G: x=0.265000 y=0.690000, B: x=0.150000 y=0.060000, White point: x=0.312700 y=0.329000
  28. Mastering display luminance              : min: 0.0050 cd/m2, max: 1000.0000 cd/m2

  29. Audio #1
  30. ID                                       : 2
  31. Format                                   : DTS
  32. Format/Info                              : Digital Theater Systems
  33. Format profile                           : MA / Core
  34. Codec ID                                 : A_DTS
  35. Duration                                 : 2 h 4 min
  36. Bit rate mode                            : Variable / Constant
  37. Bit rate                                 : 3 333 kb/s / 1 509 kb/s
  38. Channel(s)                               : 6 channels
  39. Channel positions                        : Front: L C R, Side: L R, LFE
  40. Sampling rate                            : 48.0 kHz
  41. Frame rate                               : 93.750 FPS (512 SPF)
  42. Bit depth                                : 24 bits
  43. Compression mode                         : Lossless / Lossy
  44. Stream size                              : 2.90GB (5%)
  45. Title                                    : Allied.2016.2160p.BluRay.REMUX.HEVC.DTS-HD.MA.5.1-FGT
  46. Language                                 : English
  47. Default                                  : Yes
  48. Forced                                   : No

  49. Audio #2
  50. ID                                       : 3
  51. Format                                   : AC-3
  52. Format/Info                              : Audio Coding 3
  53. Codec ID                                 : A_AC3
  54. Duration                                 : 2 h 4 min
  55. Bit rate mode                            : Constant
  56. Bit rate                                 : 640 kb/s
  57. Channel(s)                               : 6 channels
  58. Channel positions                        : Front: L C R, Side: L R, LFE
  59. Sampling rate                            : 48.0 kHz
  60. Frame rate                               : 31.250 FPS (1536 SPF)
  61. Bit depth                                : 16 bits
  62. Compression mode                         : Lossy
  63. Stream size                              : 570 MiB (1%)
  64. Title                                    : Allied.2016.2160p.BluRay.REMUX.HEVC.DTS-HD.MA.5.1-FGT
  65. Language                                 : German
  66. Service kind                             : Complete Main
  67. Default                                  : No
  68. Forced                                   : No

  69. Audio #3
  70. ID                                       : 4
  71. Format                                   : AC-3
  72. Format/Info                              : Audio Coding 3
  73. Codec ID                                 : A_AC3
  74. Duration                                 : 2 h 4 min
  75. Bit rate mode                            : Constant
  76. Bit rate                                 : 640 kb/s
  77. Channel(s)                               : 6 channels
  78. Channel positions                        : Front: L C R, Side: L R, LFE
  79. Sampling rate                            : 48.0 kHz
  80. Frame rate                               : 31.250 FPS (1536 SPF)
  81. Bit depth                                : 16 bits
  82. Compression mode                         : Lossy
  83. Stream size                              : 570 MiB (1%)
  84. Title                                    : Allied.2016.2160p.BluRay.REMUX.HEVC.DTS-HD.MA.5.1-FGT
  85. Language                                 : English
  86. Service kind                             : Complete Main
  87. Default                                  : No
  88. Forced                                   : No

  89. Audio #4
  90. ID                                       : 5
  91. Format                                   : AC-3
  92. Format/Info                              : Audio Coding 3
  93. Codec ID                                 : A_AC3
  94. Duration                                 : 2 h 4 min
  95. Bit rate mode                            : Constant
  96. Bit rate                                 : 640 kb/s
  97. Channel(s)                               : 6 channels
  98. Channel positions                        : Front: L C R, Side: L R, LFE
  99. Sampling rate                            : 48.0 kHz
  100. Frame rate                               : 31.250 FPS (1536 SPF)
  101. Bit depth                                : 16 bits
  102. Compression mode                         : Lossy
  103. Stream size                              : 570 MiB (1%)
  104. Title                                    : Allied.2016.2160p.BluRay.REMUX.HEVC.DTS-HD.MA.5.1-FGT
  105. Language                                 : Spanish
  106. Service kind                             : Complete Main
  107. Default                                  : No
  108. Forced                                   : No

  109. Audio #5
  110. ID                                       : 6
  111. Format                                   : AC-3
  112. Format/Info                              : Audio Coding 3
  113. Codec ID                                 : A_AC3
  114. Duration                                 : 2 h 4 min
  115. Bit rate mode                            : Constant
  116. Bit rate                                 : 640 kb/s
  117. Channel(s)                               : 6 channels
  118. Channel positions                        : Front: L C R, Side: L R, LFE
  119. Sampling rate                            : 48.0 kHz
  120. Frame rate                               : 31.250 FPS (1536 SPF)
  121. Bit depth                                : 16 bits
  122. Compression mode                         : Lossy
  123. Stream size                              : 570 MiB (1%)
  124. Title                                    : Allied.2016.2160p.BluRay.REMUX.HEVC.DTS-HD.MA.5.1-FGT
  125. Language                                 : French
  126. Service kind                             : Complete Main
  127. Default                                  : No
  128. Forced                                   : No

  129. Audio #6
  130. ID                                       : 7
  131. Format                                   : AC-3
  132. Format/Info                              : Audio Coding 3
  133. Codec ID                                 : A_AC3
  134. Duration                                 : 2 h 4 min
  135. Bit rate mode                            : Constant
  136. Bit rate                                 : 640 kb/s
  137. Channel(s)                               : 6 channels
  138. Channel positions                        : Front: L C R, Side: L R, LFE
  139. Sampling rate                            : 48.0 kHz
  140. Frame rate                               : 31.250 FPS (1536 SPF)
  141. Bit depth                                : 16 bits
  142. Compression mode                         : Lossy
  143. Stream size                              : 570 MiB (1%)
  144. Title                                    : Allied.2016.2160p.BluRay.REMUX.HEVC.DTS-HD.MA.5.1-FGT
  145. Language                                 : Italian
  146. Service kind                             : Complete Main
  147. Default                                  : No
  148. Forced                                   : No

  149. Audio #7
  150. ID                                       : 8
  151. Format                                   : AC-3
  152. Format/Info                              : Audio Coding 3
  153. Codec ID                                 : A_AC3
  154. Duration                                 : 2 h 4 min
  155. Bit rate mode                            : Constant
  156. Bit rate                                 : 640 kb/s
  157. Channel(s)                               : 6 channels
  158. Channel positions                        : Front: L C R, Side: L R, LFE
  159. Sampling rate                            : 48.0 kHz
  160. Frame rate                               : 31.250 FPS (1536 SPF)
  161. Bit depth                                : 16 bits
  162. Compression mode                         : Lossy
  163. Stream size                              : 570 MiB (1%)
  164. Title                                    : Allied.2016.2160p.BluRay.REMUX.HEVC.DTS-HD.MA.5.1-FGT
  165. Language                                 : Japanese
  166. Service kind                             : Complete Main
  167. Default                                  : No
  168. Forced                                   : No

  169. Text #1
  170. ID                                       : 9
  171. Format                                   : PGS
  172. Muxing mode                              : zlib
  173. Codec ID                                 : S_HDMV/PGS
  174. Codec ID/Info                            : Picture based subtitle format used on BDs/HD-DVDs
  175. Duration                                 : 1 h 51 min
  176. Bit rate                                 : 21.2 kb/s
  177. Count of elements                        : 2082
  178. Stream size                              : 16.9 MiB (0%)
  179. Title                                    : English-PGS
  180. Language                                 : English
  181. Default                                  : Yes
  182. Forced                                   : No

  183. Text #2
  184. ID                                       : 10
  185. Format                                   : PGS
  186. Muxing mode                              : zlib
  187. Codec ID                                 : S_HDMV/PGS
  188. Codec ID/Info                            : Picture based subtitle format used on BDs/HD-DVDs
  189. Duration                                 : 2 h 2 min
  190. Bit rate                                 : 10.1 kb/s
  191. Count of elements                        : 2100
  192. Stream size                              : 8.85 MiB (0%)
  193. Title                                    : Arabic-PGS
  194. Language                                 : Arabic
  195. Default                                  : No
  196. Forced                                   : No

  197. Text #3
  198. ID                                       : 11
  199. Format                                   : PGS
  200. Muxing mode                              : zlib
  201. Codec ID                                 : S_HDMV/PGS
  202. Codec ID/Info                            : Picture based subtitle format used on BDs/HD-DVDs
  203. Duration                                 : 2 h 3 min
  204. Bit rate                                 : 13.5 kb/s
  205. Count of elements                        : 2058
  206. Stream size                              : 11.9 MiB (0%)
  207. Title                                    : Chinese-PGS
  208. Language                                 : Chinese
  209. Default                                  : No
  210. Forced                                   : No

  211. Text #4
  212. ID                                       : 12
  213. Format                                   : PGS
  214. Muxing mode                              : zlib
  215. Codec ID                                 : S_HDMV/PGS
  216. Codec ID/Info                            : Picture based subtitle format used on BDs/HD-DVDs
  217. Duration                                 : 2 h 3 min
  218. Bit rate                                 : 18.1 kb/s
  219. Count of elements                        : 2070
  220. Stream size                              : 15.9 MiB (0%)
  221. Title                                    : Czech-PGS
  222. Language                                 : Czech
  223. Default                                  : No
  224. Forced                                   : No

  225. Text #5
  226. ID                                       : 13
  227. Format                                   : PGS
  228. Muxing mode                              : zlib
  229. Codec ID                                 : S_HDMV/PGS
  230. Codec ID/Info                            : Picture based subtitle format used on BDs/HD-DVDs
  231. Duration                                 : 2 h 2 min
  232. Bit rate                                 : 18.1 kb/s
  233. Count of elements                        : 2040
  234. Stream size                              : 15.8 MiB (0%)
  235. Title                                    : Danish-PGS
  236. Language                                 : Danish
  237. Default                                  : No
  238. Forced                                   : No

  239. Text #6
  240. ID                                       : 14
  241. Format                                   : PGS
  242. Muxing mode                              : zlib
  243. Codec ID                                 : S_HDMV/PGS
  244. Codec ID/Info                            : Picture based subtitle format used on BDs/HD-DVDs
  245. Duration                                 : 2 h 3 min
  246. Bit rate                                 : 21.1 kb/s
  247. Count of elements                        : 2102
  248. Stream size                              : 18.6 MiB (0%)
  249. Title                                    : German-PGS
  250. Language                                 : German
  251. Default                                  : No
  252. Forced                                   : No

  253. Text #7
  254. ID                                       : 15
  255. Format                                   : PGS
  256. Muxing mode                              : zlib
  257. Codec ID                                 : S_HDMV/PGS
  258. Codec ID/Info                            : Picture based subtitle format used on BDs/HD-DVDs
  259. Duration                                 : 2 h 3 min
  260. Bit rate                                 : 20.2 kb/s
  261. Count of elements                        : 2062
  262. Stream size                              : 17.8 MiB (0%)
  263. Title                                    : Greek-PGS
  264. Language                                 : Greek
  265. Default                                  : No
  266. Forced                                   : No

  267. Text #8
  268. ID                                       : 16
  269. Format                                   : PGS
  270. Muxing mode                              : zlib
  271. Codec ID                                 : S_HDMV/PGS
  272. Codec ID/Info                            : Picture based subtitle format used on BDs/HD-DVDs
  273. Duration                                 : 2 h 3 min
  274. Bit rate                                 : 19.1 kb/s
  275. Count of elements                        : 2030
  276. Stream size                              : 16.9 MiB (0%)
  277. Title                                    : Spanish-PGS
  278. Language                                 : Spanish
  279. Default                                  : No
  280. Forced                                   : No

  281. Text #9
  282. ID                                       : 17
  283. Format                                   : PGS
  284. Muxing mode                              : zlib
  285. Codec ID                                 : S_HDMV/PGS
  286. Codec ID/Info                            : Picture based subtitle format used on BDs/HD-DVDs
  287. Duration                                 : 2 h 3 min
  288. Bit rate                                 : 17.3 kb/s
  289. Count of elements                        : 1956
  290. Stream size                              : 15.3 MiB (0%)
  291. Title                                    : French-PGS
  292. Language                                 : French
  293. Default                                  : No
  294. Forced                                   : No

  295. Text #10
  296. ID                                       : 18
  297. Format                                   : PGS
  298. Muxing mode                              : zlib
  299. Codec ID                                 : S_HDMV/PGS
  300. Codec ID/Info                            : Picture based subtitle format used on BDs/HD-DVDs
  301. Duration                                 : 2 h 3 min
  302. Bit rate                                 : 13.0 kb/s
  303. Count of elements                        : 2096
  304. Stream size                              : 11.5 MiB (0%)
  305. Title                                    : Hebrew-PGS
  306. Language                                 : Hebrew
  307. Default                                  : No
  308. Forced                                   : No

  309. Text #11
  310. ID                                       : 19
  311. Format                                   : PGS
  312. Muxing mode                              : zlib
  313. Codec ID                                 : S_HDMV/PGS
  314. Codec ID/Info                            : Picture based subtitle format used on BDs/HD-DVDs
  315. Duration                                 : 2 h 2 min
  316. Bit rate                                 : 18.5 kb/s
  317. Count of elements                        : 2230
  318. Stream size                              : 16.2 MiB (0%)
  319. Title                                    : Hindi-PGS
  320. Language                                 : Hindi
  321. Default                                  : No
  322. Forced                                   : No

  323. Text #12
  324. ID                                       : 20
  325. Format                                   : PGS
  326. Muxing mode                              : zlib
  327. Codec ID                                 : S_HDMV/PGS
  328. Codec ID/Info                            : Picture based subtitle format used on BDs/HD-DVDs
  329. Duration                                 : 2 h 2 min
  330. Bit rate                                 : 19.3 kb/s
  331. Count of elements                        : 2096
  332. Stream size                              : 16.9 MiB (0%)
  333. Title                                    : Icelandic-PGS
  334. Language                                 : Icelandic
  335. Default                                  : No
  336. Forced                                   : No

  337. Text #13
  338. ID                                       : 21
  339. Format                                   : PGS
  340. Muxing mode                              : zlib
  341. Codec ID                                 : S_HDMV/PGS
  342. Codec ID/Info                            : Picture based subtitle format used on BDs/HD-DVDs
  343. Duration                                 : 2 h 3 min
  344. Bit rate                                 : 19.4 kb/s
  345. Count of elements                        : 2070
  346. Stream size                              : 17.1 MiB (0%)
  347. Title                                    : Italian-PGS
  348. Language                                 : Italian
  349. Default                                  : No
  350. Forced                                   : No

  351. Text #14
  352. ID                                       : 22
  353. Format                                   : PGS
  354. Muxing mode                              : zlib
  355. Codec ID                                 : S_HDMV/PGS
  356. Codec ID/Info                            : Picture based subtitle format used on BDs/HD-DVDs
  357. Duration                                 : 1 h 54 min
  358. Bit rate                                 : 16.8 kb/s
  359. Count of elements                        : 1963
  360. Stream size                              : 13.7 MiB (0%)
  361. Title                                    : Japanese-PGS
  362. Language                                 : Japanese
  363. Default                                  : No
  364. Forced                                   : No

  365. Text #15
  366. ID                                       : 23
  367. Format                                   : PGS
  368. Muxing mode                              : zlib
  369. Codec ID                                 : S_HDMV/PGS
  370. Codec ID/Info                            : Picture based subtitle format used on BDs/HD-DVDs
  371. Duration                                 : 2 h 3 min
  372. Bit rate                                 : 11.8 kb/s
  373. Count of elements                        : 2014
  374. Stream size                              : 10.4 MiB (0%)
  375. Title                                    : Korean-PGS
  376. Language                                 : Korean
  377. Default                                  : No
  378. Forced                                   : No

  379. Text #16
  380. ID                                       : 24
  381. Format                                   : PGS
  382. Muxing mode                              : zlib
  383. Codec ID                                 : S_HDMV/PGS
  384. Codec ID/Info                            : Picture based subtitle format used on BDs/HD-DVDs
  385. Duration                                 : 2 h 3 min
  386. Bit rate                                 : 19.1 kb/s
  387. Count of elements                        : 2098
  388. Stream size                              : 16.9 MiB (0%)
  389. Title                                    : Hungarian-PGS
  390. Language                                 : Hungarian
  391. Default                                  : No
  392. Forced                                   : No

  393. Text #17
  394. ID                                       : 25
  395. Format                                   : PGS
  396. Muxing mode                              : zlib
  397. Codec ID                                 : S_HDMV/PGS
  398. Codec ID/Info                            : Picture based subtitle format used on BDs/HD-DVDs
  399. Duration                                 : 2 h 3 min
  400. Bit rate                                 : 15.3 kb/s
  401. Count of elements                        : 2064
  402. Stream size                              : 13.5 MiB (0%)
  403. Title                                    : Chinese-PGS
  404. Language                                 : Chinese
  405. Default                                  : No
  406. Forced                                   : No

  407. Text #18
  408. ID                                       : 26
  409. Format                                   : PGS
  410. Muxing mode                              : zlib
  411. Codec ID                                 : S_HDMV/PGS
  412. Codec ID/Info                            : Picture based subtitle format used on BDs/HD-DVDs
  413. Duration                                 : 2 h 2 min
  414. Bit rate                                 : 17.4 kb/s
  415. Count of elements                        : 1962
  416. Stream size                              : 15.2 MiB (0%)
  417. Title                                    : Dutch-PGS
  418. Language                                 : Dutch
  419. Default                                  : No
  420. Forced                                   : No

  421. Text #19
  422. ID                                       : 27
  423. Format                                   : PGS
  424. Muxing mode                              : zlib
  425. Codec ID                                 : S_HDMV/PGS
  426. Codec ID/Info                            : Picture based subtitle format used on BDs/HD-DVDs
  427. Duration                                 : 2 h 3 min
  428. Bit rate                                 : 17.6 kb/s
  429. Count of elements                        : 1994
  430. Stream size                              : 15.5 MiB (0%)
  431. Title                                    : Norwegian-PGS
  432. Language                                 : Norwegian
  433. Default                                  : No
  434. Forced                                   : No

  435. Text #20
  436. ID                                       : 28
  437. Format                                   : PGS
  438. Muxing mode                              : zlib
  439. Codec ID                                 : S_HDMV/PGS
  440. Codec ID/Info                            : Picture based subtitle format used on BDs/HD-DVDs
  441. Duration                                 : 2 h 3 min
  442. Bit rate                                 : 17.2 kb/s
  443. Count of elements                        : 2026
  444. Stream size                              : 15.2 MiB (0%)
  445. Title                                    : Polish-PGS
  446. Language                                 : Polish
  447. Default                                  : No
  448. Forced                                   : No

  449. Text #21
  450. ID                                       : 29
  451. Format                                   : PGS
  452. Muxing mode                              : zlib
  453. Codec ID                                 : S_HDMV/PGS
  454. Codec ID/Info                            : Picture based subtitle format used on BDs/HD-DVDs
  455. Duration                                 : 2 h 3 min
  456. Bit rate                                 : 19.4 kb/s
  457. Count of elements                        : 2038
  458. Stream size                              : 17.2 MiB (0%)
  459. Title                                    : Portuguese-PGS
  460. Language                                 : Portuguese
  461. Default                                  : No
  462. Forced                                   : No

  463. Text #22
  464. ID                                       : 30
  465. Format                                   : PGS
  466. Muxing mode                              : zlib
  467. Codec ID                                 : S_HDMV/PGS
  468. Codec ID/Info                            : Picture based subtitle format used on BDs/HD-DVDs
  469. Duration                                 : 2 h 3 min
  470. Bit rate                                 : 18.4 kb/s
  471. Count of elements                        : 2072
  472. Stream size                              : 16.2 MiB (0%)
  473. Title                                    : Russian-PGS
  474. Language                                 : Russian
  475. Default                                  : No
  476. Forced                                   : No

  477. Text #23
  478. ID                                       : 31
  479. Format                                   : PGS
  480. Muxing mode                              : zlib
  481. Codec ID                                 : S_HDMV/PGS
  482. Codec ID/Info                            : Picture based subtitle format used on BDs/HD-DVDs
  483. Duration                                 : 2 h 3 min
  484. Bit rate                                 : 16.8 kb/s
  485. Count of elements                        : 2098
  486. Stream size                              : 14.8 MiB (0%)
  487. Title                                    : Romanian-PGS
  488. Language                                 : Romanian
  489. Default                                  : No
  490. Forced                                   : No

  491. Text #24
  492. ID                                       : 32
  493. Format                                   : PGS
  494. Muxing mode                              : zlib
  495. Codec ID                                 : S_HDMV/PGS
  496. Codec ID/Info                            : Picture based subtitle format used on BDs/HD-DVDs
  497. Duration                                 : 2 h 3 min
  498. Bit rate                                 : 15.2 kb/s
  499. Count of elements                        : 2100
  500. Stream size                              : 13.4 MiB (0%)
  501. Title                                    : Chinese-PGS
  502. Language                                 : Chinese
  503. Default                                  : No
  504. Forced                                   : No

  505. Text #25
  506. ID                                       : 33
  507. Format                                   : PGS
  508. Muxing mode                              : zlib
  509. Codec ID                                 : S_HDMV/PGS
  510. Codec ID/Info                            : Picture based subtitle format used on BDs/HD-DVDs
  511. Duration                                 : 2 h 3 min
  512. Bit rate                                 : 16.8 kb/s
  513. Count of elements                        : 2080
  514. Stream size                              : 14.9 MiB (0%)
  515. Title                                    : Slovak-PGS
  516. Language                                 : Slovak
  517. Default                                  : No
  518. Forced                                   : No

  519. Text #26
  520. ID                                       : 34
  521. Format                                   : PGS
  522. Muxing mode                              : zlib
  523. Codec ID                                 : S_HDMV/PGS
  524. Codec ID/Info                            : Picture based subtitle format used on BDs/HD-DVDs
  525. Duration                                 : 2 h 3 min
  526. Bit rate                                 : 19.0 kb/s
  527. Count of elements                        : 2098
  528. Stream size                              : 16.8 MiB (0%)
  529. Title                                    : Finnish-PGS
  530. Language                                 : Finnish
  531. Default                                  : No
  532. Forced                                   : No

  533. Text #27
  534. ID                                       : 35
  535. Format                                   : PGS
  536. Muxing mode                              : zlib
  537. Codec ID                                 : S_HDMV/PGS
  538. Codec ID/Info                            : Picture based subtitle format used on BDs/HD-DVDs
  539. Duration                                 : 2 h 2 min
  540. Bit rate                                 : 18.7 kb/s
  541. Count of elements                        : 2066
  542. Stream size                              : 16.3 MiB (0%)
  543. Title                                    : Swedish-PGS
  544. Language                                 : Swedish
  545. Default                                  : No
  546. Forced                                   : No

  547. Text #28
  548. ID                                       : 36
  549. Format                                   : PGS
  550. Muxing mode                              : zlib
  551. Codec ID                                 : S_HDMV/PGS
  552. Codec ID/Info                            : Picture based subtitle format used on BDs/HD-DVDs
  553. Duration                                 : 2 h 3 min
  554. Bit rate                                 : 13.2 kb/s
  555. Count of elements                        : 2084
  556. Stream size                              : 11.6 MiB (0%)
  557. Title                                    : Thai-PGS
  558. Language                                 : Thai
  559. Default                                  : No
  560. Forced                                   : No

  561. Text #29
  562. ID                                       : 37
  563. Format                                   : PGS
  564. Muxing mode                              : zlib
  565. Codec ID                                 : S_HDMV/PGS
  566. Codec ID/Info                            : Picture based subtitle format used on BDs/HD-DVDs
  567. Duration                                 : 2 h 3 min
  568. Bit rate                                 : 19.2 kb/s
  569. Count of elements                        : 2072
  570. Stream size                              : 17.0 MiB (0%)
  571. Title                                    : Turkish-PGS
  572. Language                                 : Turkish
  573. Default                                  : No
  574. Forced                                   : No

  575. Text #30
  576. ID                                       : 38
  577. Format                                   : PGS
  578. Muxing mode                              : zlib
  579. Codec ID                                 : S_HDMV/PGS
  580. Codec ID/Info                            : Picture based subtitle format used on BDs/HD-DVDs
  581. Duration                                 : 2 h 3 min
  582. Bit rate                                 : 17.5 kb/s
  583. Count of elements                        : 2102
  584. Stream size                              : 15.5 MiB (0%)
  585. Title                                    : Ukrainian-PGS
  586. Language                                 : Ukrainian
  587. Default                                  : No
  588. Forced                                   : No

  589. Text #31
  590. ID                                       : 39
  591. Format                                   : PGS
  592. Muxing mode                              : zlib
  593. Codec ID                                 : S_HDMV/PGS
  594. Codec ID/Info                            : Picture based subtitle format used on BDs/HD-DVDs
  595. Duration                                 : 1 h 55 min
  596. Bit rate                                 : 25.2 kb/s
  597. Count of elements                        : 2582
  598. Stream size                              : 20.8 MiB (0%)
  599. Title                                    : English-PGS
  600. Language                                 : English
  601. Default                                  : No
  602. Forced                                   : No

  603. Text #32
  604. ID                                       : 40
  605. Format                                   : PGS
  606. Muxing mode                              : zlib
  607. Codec ID                                 : S_HDMV/PGS
  608. Codec ID/Info                            : Picture based subtitle format used on BDs/HD-DVDs
  609. Duration                                 : 1 h 43 min
  610. Bit rate                                 : 2 406 b/s
  611. Count of elements                        : 297
  612. Stream size                              : 1.79 MiB (0%)
  613. Title                                    : Japanese-FORCED-PGS
  614. Language                                 : Japanese
  615. Default                                  : No
  616. Forced                                   : No

  617. Menu
  618. 00:00:00.000                             : en:Chapter 1
  619. 00:05:38.087                             : en:Chapter 2
  620. 00:16:39.748                             : en:Chapter 3
  621. 00:24:31.428                             : en:Chapter 4
  622. 00:33:52.280                             : en:Chapter 5
  623. 00:43:07.543                             : en:Chapter 6
  624. 00:49:14.117                             : en:Chapter 7
  625. 01:01:39.320                             : en:Chapter 8
  626. 01:09:36.338                             : en:Chapter 9
  627. 01:16:44.016                             : en:Chapter 10
  628. 01:26:14.961                             : en:Chapter 11
  629. 01:31:53.466                             : en:Chapter 12
  630. 01:40:12.172                             : en:Chapter 13
  631. 01:47:25.105                             : en:Chapter 14
  632. 01:56:35.613                             : en:Chapter 15



复制代码
复制代码
021446xxbxsb7xbagszv0b.png 021447hirsotrrizo2hvlr.png 021448ffl4b3jo993oc6l6.png 021449n669talioipn6etj.png 021450w3seftzkjly3nxt2.png 021451kzwmnj8jjwywn2mo.png






回复

使用道具 举报

蓝光币
1
发表于 2017-12-24 22:13:58 | 显示全部楼层
发个帖吧。赚点积分
回复

使用道具 举报

蓝光币
2486
发表于 2020-3-20 22:16:03 | 显示全部楼层
间谍同盟4k
回复

使用道具 举报

懒得打字嘛,点击右侧快捷回复 【右侧内容,后台自定义】
您需要登录后才可以回帖 登录 | 立即加入

本版积分规则

Archiver| |网站地图

Copyright © 2024 Comsenz Inc. Powered by 蓝光电影网

本站内容由用户自主分享和转载自互联网,转载目的在于传递更多信息,并不代表本网赞同其观点和对其真实性负责。

如有侵权、违反国家法律政策行为,请联系我们,我们会第一时间及时清除和处理!

举报反馈邮箱:4k1080.com@gmail.com

快速回复 返回顶部 返回列表