找回密码

查看: 3993|回复: 6

安德的游戏/宇宙生还战:安达的战争游戏 Enders.Game.2013.2160p.BluRay.x265.10bit.HDR.TrueHD.7.1.Atmos-TERMiNAL 14.23GB

[复制链接]
蓝光币
1982
发表于 2017-12-20 10:48:01 | 显示全部楼层 |阅读模式
031207ff1zf3u1tt5sz49o.jpg
◎译  名 安德的游戏/宇宙生还战:安达的战争游戏/战争游戏
◎片  名 Ender's Game
◎年  代 2013
◎产  地 美国
◎类  别 行动/科幻/冒险
◎语  言 英语
◎上映日期 2013-10-24(德国)/2013-11-01(美国)/2014-01-07(中国大陆)
◎IMDb评分  6.7/10 from 199,396 users
◎IMDb链接  http://www.imdb.com/title/tt1731141/
◎豆瓣评分 6.9/10 from 101,597 users
◎豆瓣链接 https://movie.douban.com/subject/5323957/
◎片  长 114分钟
◎导  演 加文·胡德 Gavin Hood
◎主  演 阿沙·巴特菲尔德 Asa Butterfield
      哈里森·福特 Harrison Ford
      海莉·斯坦菲尔德 Hailee Steinfeld
      阿比盖尔·布蕾斯琳 Abigail Breslin
      本·金斯利 Ben Kingsley
      维奥拉·戴维斯 Viola Davis
      阿拉米斯·奈特 Aramis Knight
      莫伊塞斯·阿里亚斯 Moises Arias
      吉米·贾克斯·平查克 Jimmy 'Jax' Pinchak
      侬索·阿诺斯 Nonso Anozie
      康纳·卡罗尔 Conor Carroll

◎简  介

  并不悠远的未来,来自外星系的异星蜓入侵地球,形成跨越一万万人灭亡。危难时辰,勇敢的队长瑞克汉姆阻挡了侵犯者扩大的步伐。操纵这有限贵重的时候,地球人努力寻觅具有极高天赋的少年加以练习培育,以期他们可以成为挫败外星入侵者的魁首人物。体态瘦小、神采郁闷但眼光非常果断的安德·维京(阿沙·巴特菲尔德 Asa Butterfield 饰)正是这群少年中的一员,他也是国际舰队寄与厚望并重点培育的工具。经过数轮严苛的考评,安德的潜质获得战役黉舍的批示官格拉夫上校(哈里森·福特 Harrison Ford 饰)的必定,他被上校带到了位于轨道空间站上的战役黉舍,在全封锁的情况下,未来的豪杰迎来新一轮的考验……
  本片按照美国科幻小说作家奥森·斯科特·卡德(Orson Scott Card)的原作改编。

◎获奖情况

  第19届美国批评家挑选电影奖  (2014)
  最好青年演员(提名) 阿萨·巴特菲尔德

  第12届华盛顿影评人协会奖  (2013)
  最好青少年表演(提名) 阿萨·巴特菲尔德

  第13届凤凰城影评人协会奖  (2013)
  最好青年男演员(提名) 阿萨·巴特菲尔德

  第1届豆瓣电影年度榜单  (2014)
  1月最受关注电影(提名)


  1. Video
  2. ID                                       : 1
  3. Format                                   : HEVC
  4. Format/Info                              : High Efficiency Video Coding
  5. Format profile                           : Main [email]10@L5.1[/email]@High
  6. Codec ID                                 : V_MPEGH/ISO/HEVC
  7. Duration                                 : 1 h 53 min
  8. Bit rate                                 : 12.4 Mb/s
  9. Width                                    : 3 840 pixels
  10. Height                                   : 1 600 pixels
  11. Display aspect ratio                     : 2.40:1
  12. Frame rate mode                          : Constant
  13. Frame rate                               : 23.976 (24000/1001) FPS
  14. Color space                              : YUV
  15. Chroma subsampling                       : 4:2:0 (Type 2)
  16. Bit depth                                : 10 bits
  17. Bits/(Pixel*Frame)                       : 0.084
  18. Stream size                              : 9.88GB (70%)
  19. Writing library                          : x265 2.5+58-06979c042350:[Windows][GCC 6.2.1][64 bit] 10bit
  20. Encoding settings                        : cpuid=1173503 / frame-threads=4 / numa-pools=16 / wpp / no-pmode / no-pme / no-psnr / no-ssim / log-level=2 / input-csp=1 / input-res=3840x1600 / interlace=0 / total-frames=163727 / level-idc=51 / high-tier=1 / uhd-bd=0 / ref=4 / no-allow-non-conformance / repeat-headers / annexb / aud / hrd / info / hash=0 / no-temporal-layers / no-open-gop / min-keyint=1 / keyint=24 / bframes=4 / b-adapt=2 / b-pyramid / bframe-bias=0 / rc-lookahead=25 / lookahead-slices=4 / scenecut=40 / no-intra-refresh / ctu=64 / min-cu-size=8 / rect / no-amp / max-tu-size=32 / tu-inter-depth=1 / tu-intra-depth=1 / limit-tu=0 / rdoq-level=2 / dynamic-rd=0.00 / no-ssim-rd / signhide / no-tskip / nr-intra=0 / nr-inter=0 / no-constrained-intra / no-strong-intra-smoothing / max-merge=3 / limit-refs=3 / limit-modes / me=3 / subme=3 / merange=57 / temporal-mvp / weightp / no-weightb / no-analyze-src-pics / deblock=-3:-3 / no-sao / no-sao-non-deblock / rd=4 / no-early-skip / rskip / no-fast-intra / no-tskip-fast / no-cu-lossless / no-b-intra / no-splitrd-skip / rdpenalty=0 / psy-rd=2.00 / psy-rdoq=1.00 / no-rd-refine / analysis-reuse-mode=0 / no-lossless / cbqpoffs=0 / crqpoffs=0 / rc=crf / crf=17.0 / qcomp=0.60 / qpstep=4 / stats-write=0 / stats-read=0 / vbv-maxrate=160000 / vbv-bufsize=160000 / vbv-init=0.9 / crf-max=0.0 / crf-min=0.0 / ipratio=1.40 / pbratio=1.30 / aq-mode=1 / aq-strength=1.00 / cutree / zone-count=0 / no-strict-cbr / qg-size=32 / no-rc-grain / qpmax=69 / qpmin=0 / no-const-vbv / sar=1 / overscan=0 / videoformat=5 / range=0 / colorprim=9 / transfer=16 / colormatrix=9 / chromaloc=1 / chromaloc-top=2 / chromaloc-bottom=2 / display-window=0 / master-display=G(13250,34500)B(7500,3000)R(34000,16000)WP(15635,16450)L(40000000,50) / max-cll=0,0 / min-luma=0 / max-luma=1023 / log2-max-poc-lsb=8 / vui-timing-info / vui-hrd-info / slices=1 / no-opt-qp-pps / no-opt-ref-list-length-pps / no-multi-pass-opt-rps / scenecut-bias=0.05 / no-opt-cu-delta-qp / no-aq-motion / hdr / hdr-opt / no-dhdr10-opt / analysis-reuse-level=5 / scale-factor=0 / refine-intra=0 / refine-inter=0 / refine-mv=0 / no-limit-sao / ctu-info=0 / no-lowpass-dct / refine-mv-type=0 / copy-pic=1
  21. Default                                  : Yes
  22. Forced                                   : No
  23. Color range                              : Limited
  24. Color primaries                          : BT.2020
  25. Transfer characteristics                 : PQ
  26. Matrix coefficients                      : BT.2020 non-constant
  27. Mastering display color primaries        : R: x=0.680000 y=0.320000, G: x=0.265000 y=0.690000, B: x=0.150000 y=0.060000, White point: x=0.312700 y=0.329000
  28. Mastering display luminance              : min: 0.0050 cd/m2, max: 4000.0000 cd/m2

  29. Audio #1
  30. ID                                       : 2
  31. Format                                   : TrueHD
  32. Format profile                           : TrueHD+Atmos / TrueHD
  33. Codec ID                                 : A_TRUEHD
  34. Duration                                 : 1 h 53 min
  35. Bit rate mode                            : Variable
  36. Bit rate                                 : 4 673 kb/s
  37. Maximum bit rate                         : 8 028 kb/s
  38. Channel(s)                               : Object Based / 8 channels
  39. Channel positions                        : Object Based / Front: L C R, Side: L R, Back: L R, LFE
  40. Sampling rate                            :  / 48.0 kHz
  41. Frame rate                               : 1 200.000 FPS (40 SPF)
  42. Compression mode                         : Lossless
  43. Stream size                              : 3.72GB (26%)
  44. Language                                 : English
  45. Default                                  : Yes
  46. Forced                                   : No

  47. Audio #2
  48. ID                                       : 3
  49. Format                                   : AC-3
  50. Format/Info                              : Audio Coding 3
  51. Codec ID                                 : A_AC3
  52. Duration                                 : 1 h 53 min
  53. Bit rate mode                            : Constant
  54. Bit rate                                 : 640 kb/s
  55. Channel(s)                               : 6 channels
  56. Channel positions                        : Front: L C R, Side: L R, LFE
  57. Sampling rate                            : 48.0 kHz
  58. Frame rate                               : 31.250 FPS (1536 SPF)
  59. Bit depth                                : 16 bits
  60. Compression mode                         : Lossy
  61. Stream size                              : 522 MiB (4%)
  62. Language                                 : English
  63. Service kind                             : Complete Main
  64. Default                                  : No
  65. Forced                                   : No

  66. Text #1
  67. ID                                       : 4
  68. Format                                   : PGS
  69. Muxing mode                              : zlib
  70. Codec ID                                 : S_HDMV/PGS
  71. Codec ID/Info                            : Picture based subtitle format used on BDs/HD-DVDs
  72. Duration                                 : 1 h 44 min
  73. Bit rate                                 : 34.9 kb/s
  74. Count of elements                        : 2948
  75. Stream size                              : 26.0 MiB (0%)
  76. Title                                    : English (white)
  77. Language                                 : English
  78. Default                                  : No
  79. Forced                                   : No

  80. Text #2
  81. ID                                       : 5
  82. Format                                   : PGS
  83. Muxing mode                              : zlib
  84. Codec ID                                 : S_HDMV/PGS
  85. Codec ID/Info                            : Picture based subtitle format used on BDs/HD-DVDs
  86. Duration                                 : 1 h 44 min
  87. Bit rate                                 : 34.9 kb/s
  88. Count of elements                        : 2948
  89. Stream size                              : 26.0 MiB (0%)
  90. Title                                    : English (gray)
  91. Language                                 : English
  92. Default                                  : No
  93. Forced                                   : No

  94. Text #3
  95. ID                                       : 6
  96. Format                                   : PGS
  97. Muxing mode                              : zlib
  98. Codec ID                                 : S_HDMV/PGS
  99. Codec ID/Info                            : Picture based subtitle format used on BDs/HD-DVDs
  100. Duration                                 : 1 h 44 min
  101. Bit rate                                 : 38.9 kb/s
  102. Count of elements                        : 3292
  103. Stream size                              : 29.1 MiB (0%)
  104. Title                                    : English SDH (white)
  105. Language                                 : English
  106. Default                                  : No
  107. Forced                                   : No

  108. Text #4
  109. ID                                       : 7
  110. Format                                   : PGS
  111. Muxing mode                              : zlib
  112. Codec ID                                 : S_HDMV/PGS
  113. Codec ID/Info                            : Picture based subtitle format used on BDs/HD-DVDs
  114. Duration                                 : 1 h 44 min
  115. Bit rate                                 : 38.9 kb/s
  116. Count of elements                        : 3292
  117. Stream size                              : 29.1 MiB (0%)
  118. Title                                    : English SDH (gray)
  119. Language                                 : English
  120. Default                                  : No
  121. Forced                                   : No

  122. Text #5
  123. ID                                       : 8
  124. Format                                   : PGS
  125. Muxing mode                              : zlib
  126. Codec ID                                 : S_HDMV/PGS
  127. Codec ID/Info                            : Picture based subtitle format used on BDs/HD-DVDs
  128. Duration                                 : 1 h 44 min
  129. Bit rate                                 : 34.9 kb/s
  130. Count of elements                        : 2738
  131. Stream size                              : 26.1 MiB (0%)
  132. Title                                    : Spanish (white)
  133. Language                                 : Spanish
  134. Default                                  : No
  135. Forced                                   : No

  136. Text #6
  137. ID                                       : 9
  138. Format                                   : PGS
  139. Muxing mode                              : zlib
  140. Codec ID                                 : S_HDMV/PGS
  141. Codec ID/Info                            : Picture based subtitle format used on BDs/HD-DVDs
  142. Duration                                 : 1 h 44 min
  143. Bit rate                                 : 34.9 kb/s
  144. Count of elements                        : 2738
  145. Stream size                              : 26.1 MiB (0%)
  146. Title                                    : Spanish (gray)
  147. Language                                 : Spanish
  148. Default                                  : No
  149. Forced                                   : No

  150. Menu
  151. 00:00:00.000                             : en:00:00:00.000
  152. 00:06:11.580                             : en:00:06:11.580
  153. 00:14:16.314                             : en:00:14:16.314
  154. 00:19:07.146                             : en:00:19:07.146
  155. 00:28:08.145                             : en:00:28:08.145
  156. 00:33:23.668                             : en:00:33:23.668
  157. 00:39:35.665                             : en:00:39:35.665
  158. 00:45:44.408                             : en:00:45:44.408
  159. 00:53:38.715                             : en:00:53:38.715
  160. 01:02:16.608                             : en:01:02:16.608
  161. 01:09:22.950                             : en:01:09:22.950
  162. 01:15:17.888                             : en:01:15:17.888
  163. 01:23:39.306                             : en:01:23:39.306
  164. 01:30:55.825                             : en:01:30:55.825
  165. 01:35:44.280                             : en:01:35:44.280
  166. 01:41:13.859                             : en:01:41:13.859



复制代码
复制代码
031208cp19s7jpjrq2do9t.png 031208d7ava1kubhvhoo0v.png 031209ngpko6go809k122m.png 031210dk77wmkkwn8opwpa.png 031211ojzznazkc8bndadu.png 031212f13hexpez3poe5u4.png





回复

使用道具 举报

懒得打字嘛,点击右侧快捷回复 【右侧内容,后台自定义】
您需要登录后才可以回帖 登录 | 立即加入

本版积分规则

Archiver| |网站地图

Copyright © 2024 Comsenz Inc. Powered by 蓝光电影网

本站内容由用户自主分享和转载自互联网,转载目的在于传递更多信息,并不代表本网赞同其观点和对其真实性负责。

如有侵权、违反国家法律政策行为,请联系我们,我们会第一时间及时清除和处理!

举报反馈邮箱:4k1080.com@gmail.com

快速回复 返回顶部 返回列表