找回密码

查看: 2544|回复: 2

乐高大电影/LEGO英雄传 The.Lego.Movie.2014.2160p.BluRay.x265.10bit.SDR.DTS-HD.MA.5.1-SWTYBLZ 14.49GB

[复制链接]
蓝光币
1992
发表于 2017-12-20 10:48:29 | 显示全部楼层 |阅读模式
055912i8gxl8x8hhjgo6hw.jpg
◎译  名 乐高峻电影/LEGO豪杰传/乐高玩电影
◎片  名 The Lego Movie
◎年  代 2014
◎产  地 美国/澳大利亚/丹麦
◎类  别 笑剧/动画/冒险
◎语  言 英语
◎上映日期 2014-02-07(美国)
◎IMDb评分  7.8/10 from 277,864 users
◎IMDb链接  http://www.imdb.com/title/tt1490017/
◎豆瓣评分 7.9/10 from 38,215 users
◎豆瓣链接 https://movie.douban.com/subject/3927734/
◎片  长 100分钟
◎导  演 菲尔·罗德 Phil Lord / 克里斯托弗·米勒 Christopher Miller
◎主  演 克里斯·帕拉特 Chris Pratt
      威尔·法瑞尔 Will Ferrell
      伊丽莎白·班克斯 Elizabeth Banks
      威尔·阿奈特 Will Arnett
      连姆·尼森 Liam Neeson
      摩根·弗里曼 Morgan Freeman
      查宁·塔图姆 Channing Tatum
      尼克·奥弗曼 Nick Offerman
      爱丽森·布里 Alison Brie
      查理·戴 Charlie Day
      乔纳·希尔 Jonah Hill
      寇碧·史莫德斯 Cobie Smulders
      大卫·布伦斯 David Burrows
      安东尼·丹尼尔斯 Anthony Daniels
      威尔·福特 Will Forte
      比利·迪·威廉姆斯 Billy Dee Williams
      基思·弗格森 Keith Ferguson
      沙奎尔·奥尼尔 Shaquille O'Neal
      杰登·桑德 Jadon Sand
      戴夫·弗兰科 Dave Franco
      杰克·约翰逊 Jake M. Johnson

◎简  介

  艾米特(克里斯·帕拉特 Chris Pratt 配音)是乐高天下中一个普通到没有存在感的修建师,他天天精神饱满,悲观向上,依照说明书的指示处置一天的活动。某天收工后,他意外掉入一个深洞,后背还黏了希奇的工具,随后就被兼具泼辣和善良两面的差人(利亚姆·尼森 Liam Neeson 配音)带走问话。本来统治乐高天下的买卖王(威尔·法瑞尔 Will Ferrell 配音)对那些极富缔造力的小人极为不满,他厌恶分歧系列的乐高天下相互穿插,更厌恶离开了说明书独辟门路的发现缔造。是以他将一切天下离隔,软禁了那些创意大师,还策划着一场可怕的诡计。艾米特危机时辰被露西(伊丽莎白·班克斯 Elizabeth Banks 配音)救下,并被先知维特鲁维斯(摩根·弗里曼 Morgan Freeman 配音)认定为救世主。
  狂风雨般的迫害袭向创意大师们,设想力窘蹙的艾米特能否担此重任?

◎获奖情况

  第87届奥斯卡金像奖  (2015)
  最好原创歌曲(提名)

  第72届金球奖  (2015)
  电影类 最好动画长片(提名)

  第42届动画安妮奖  (2015)
  最好动画长片(提名)
  最好导演(提名) 克里斯·麦凯 / 菲尔·罗德 / 克里斯托弗·米勒
  最好编剧 菲尔·罗德 / 克里斯托弗·米勒
  最好艺术指导(提名) Grant Freckelton
  最好剪辑(提名)
  最好动画结果(提名)

  第80届纽约影评人协会奖  (2014)
  最好动画片

  第86届美国国家批评协会奖  (2014)
  最好原创剧本
  年度佳片

  第13届华盛顿影评人协会奖  (2014)
  最好原创剧本(提名) 菲尔·罗德 / 克里斯托弗·米勒
  最好动画片

  第40届洛杉矶影评人协会奖  (2014)
  最好动画片(提名) 菲尔·罗德 / 克里斯托弗·米勒

  第16届美国青少年挑选奖  (2014)
  最好动画片(提名)
  最好动画配音(提名) 克里斯·普拉特

  第1届豆瓣电影年度榜单  (2014)
  评分最高的动画片(提名)



  1. Video
  2. ID                                       : 1
  3. Format                                   : HEVC
  4. Format/Info                              : High Efficiency Video Coding
  5. Format profile                           : Main [email]10@L5.1[/email]@High
  6. Codec ID                                 : V_MPEGH/ISO/HEVC
  7. Duration                                 : 1 h 40 min
  8. Bit rate                                 : 17.4 Mb/s
  9. Width                                    : 3 840 pixels
  10. Height                                   : 1 600 pixels
  11. Display aspect ratio                     : 2.40:1
  12. Frame rate mode                          : Constant
  13. Frame rate                               : 23.976 (24000/1001) FPS
  14. Color space                              : YUV
  15. Chroma subsampling                       : 4:2:0
  16. Bit depth                                : 10 bits
  17. Bits/(Pixel*Frame)                       : 0.118
  18. Stream size                              : 12.2GB (85%)
  19. Title                                    : The.Lego.Movie.2014.2160p.BluRay.x265.10bit.SDR.DTS-HD.MA.5.1-SWTYBLZ
  20. Writing library                          : x265 2.5+4-b4a5bcfe29c7:[Windows][GCC 4.9.3][64 bit] 10bit
  21. Encoding settings                        : cpuid=1173503 / frame-threads=16 / numa-pools=24,24,24,24 / wpp / no-pmode / no-pme / no-psnr / no-ssim / log-level=2 / input-csp=1 / input-res=3840x1600 / interlace=0 / total-frames=0 / level-idc=51 / high-tier=1 / uhd-bd=0 / ref=3 / no-allow-non-conformance / repeat-headers / annexb / aud / hrd / info / hash=0 / no-temporal-layers / no-open-gop / min-keyint=1 / keyint=24 / bframes=4 / b-adapt=2 / b-pyramid / bframe-bias=0 / rc-lookahead=25 / lookahead-slices=4 / scenecut=40 / no-intra-refresh / ctu=64 / min-cu-size=8 / no-rect / no-amp / max-tu-size=32 / tu-inter-depth=1 / tu-intra-depth=1 / limit-tu=0 / rdoq-level=0 / dynamic-rd=0.00 / no-ssim-rd / signhide / no-tskip / nr-intra=0 / nr-inter=0 / no-constrained-intra / strong-intra-smoothing / max-merge=2 / limit-refs=3 / no-limit-modes / me=1 / subme=2 / merange=57 / temporal-mvp / weightp / no-weightb / no-analyze-src-pics / deblock=0:0 / no-sao / no-sao-non-deblock / rd=3 / no-early-skip / rskip / no-fast-intra / no-tskip-fast / no-cu-lossless / no-b-intra / rdpenalty=0 / psy-rd=2.00 / psy-rdoq=0.00 / no-rd-refine / analysis-reuse-mode=0 / no-lossless / cbqpoffs=0 / crqpoffs=0 / rc=crf / crf=16.0 / qcomp=0.60 / qpstep=4 / stats-write=0 / stats-read=0 / vbv-maxrate=160000 / vbv-bufsize=160000 / vbv-init=0.9 / crf-max=0.0 / crf-min=0.0 / ipratio=1.40 / pbratio=1.30 / aq-mode=1 / aq-strength=1.00 / cutree / zone-count=0 / no-strict-cbr / qg-size=32 / no-rc-grain / qpmax=69 / qpmin=0 / no-const-vbv / sar=1 / overscan=0 / videoformat=5 / range=0 / colorprim=2 / transfer=2 / colormatrix=2 / chromaloc=0 / display-window=0 / max-cll=0,0 / min-luma=0 / max-luma=1023 / log2-max-poc-lsb=8 / vui-timing-info / vui-hrd-info / slices=1 / opt-qp-pps / opt-ref-list-length-pps / no-multi-pass-opt-rps / scenecut-bias=0.05 / no-opt-cu-delta-qp / no-aq-motion / no-hdr / no-hdr-opt / no-dhdr10-opt / analysis-reuse-level=5 / scale-factor=0 / refine-intra=0 / refine-inter=0 / refine-mv=0 / no-limit-sao / ctu-info=0
  22. Default                                  : Yes
  23. Forced                                   : No

  24. Audio #1
  25. ID                                       : 2
  26. Format                                   : DTS
  27. Format/Info                              : Digital Theater Systems
  28. Format profile                           : MA / Core
  29. Codec ID                                 : A_DTS
  30. Duration                                 : 1 h 40 min
  31. Bit rate mode                            : Variable / Constant
  32. Bit rate                                 : 2 259 kb/s / 1 509 kb/s
  33. Channel(s)                               : 6 channels
  34. Channel positions                        : Front: L C R, Side: L R, LFE
  35. Sampling rate                            : 48.0 kHz
  36. Frame rate                               : 93.750 FPS (512 SPF)
  37. Bit depth                                : 16 bits
  38. Compression mode                         : Lossless / Lossy
  39. Stream size                              : 1.59GB (11%)
  40. Title                                    : The.Lego.Movie.2014.2160p.BluRay.x265.10bit.SDR.DTS-HD.MA.5.1-SWTYBLZ
  41. Language                                 : English
  42. Default                                  : Yes
  43. Forced                                   : No

  44. Audio #2
  45. ID                                       : 3
  46. Format                                   : AC-3
  47. Format/Info                              : Audio Coding 3
  48. Codec ID                                 : A_AC3
  49. Duration                                 : 1 h 40 min
  50. Bit rate mode                            : Constant
  51. Bit rate                                 : 640 kb/s
  52. Channel(s)                               : 6 channels
  53. Channel positions                        : Front: L C R, Side: L R, LFE
  54. Sampling rate                            : 48.0 kHz
  55. Frame rate                               : 31.250 FPS (1536 SPF)
  56. Bit depth                                : 16 bits
  57. Compression mode                         : Lossy
  58. Stream size                              : 460 MiB (3%)
  59. Title                                    : The.Lego.Movie.2014.2160p.BluRay.x265.10bit.SDR.DTS-HD.MA.5.1-SWTYBLZ
  60. Language                                 : English
  61. Service kind                             : Complete Main
  62. Default                                  : No
  63. Forced                                   : No

  64. Text #1
  65. ID                                       : 4
  66. Format                                   : UTF-8
  67. Codec ID                                 : S_TEXT/UTF8
  68. Codec ID/Info                            : UTF-8 Plain Text
  69. Duration                                 : 1 h 38 min
  70. Bit rate                                 : 78 b/s
  71. Count of elements                        : 1975
  72. Stream size                              : 56.6 KiB (0%)
  73. Title                                    : English-SRT
  74. Language                                 : English
  75. Default                                  : Yes
  76. Forced                                   : No

  77. Text #2
  78. ID                                       : 5
  79. Format                                   : PGS
  80. Muxing mode                              : zlib
  81. Codec ID                                 : S_HDMV/PGS
  82. Codec ID/Info                            : Picture based subtitle format used on BDs/HD-DVDs
  83. Duration                                 : 1 h 39 min
  84. Bit rate                                 : 51.4 kb/s
  85. Count of elements                        : 4308
  86. Stream size                              : 36.7 MiB (0%)
  87. Title                                    : English-PGS
  88. Language                                 : English
  89. Default                                  : No
  90. Forced                                   : No

  91. Text #3
  92. ID                                       : 6
  93. Format                                   : PGS
  94. Muxing mode                              : zlib
  95. Codec ID                                 : S_HDMV/PGS
  96. Codec ID/Info                            : Picture based subtitle format used on BDs/HD-DVDs
  97. Duration                                 : 1 h 39 min
  98. Bit rate                                 : 35.1 kb/s
  99. Count of elements                        : 3470
  100. Stream size                              : 25.0 MiB (0%)
  101. Title                                    : French-PGS
  102. Language                                 : French
  103. Default                                  : No
  104. Forced                                   : No

  105. Text #4
  106. ID                                       : 7
  107. Format                                   : PGS
  108. Muxing mode                              : zlib
  109. Codec ID                                 : S_HDMV/PGS
  110. Codec ID/Info                            : Picture based subtitle format used on BDs/HD-DVDs
  111. Duration                                 : 1 h 39 min
  112. Bit rate                                 : 56.8 kb/s
  113. Count of elements                        : 4306
  114. Stream size                              : 40.6 MiB (0%)
  115. Title                                    : German-PGS
  116. Language                                 : German
  117. Default                                  : No
  118. Forced                                   : No

  119. Text #5
  120. ID                                       : 8
  121. Format                                   : PGS
  122. Muxing mode                              : zlib
  123. Codec ID                                 : S_HDMV/PGS
  124. Codec ID/Info                            : Picture based subtitle format used on BDs/HD-DVDs
  125. Duration                                 : 1 h 39 min
  126. Bit rate                                 : 50.1 kb/s
  127. Count of elements                        : 4340
  128. Stream size                              : 35.8 MiB (0%)
  129. Title                                    : Italian-PGS
  130. Language                                 : Italian
  131. Default                                  : No
  132. Forced                                   : No

  133. Text #6
  134. ID                                       : 9
  135. Format                                   : PGS
  136. Muxing mode                              : zlib
  137. Codec ID                                 : S_HDMV/PGS
  138. Codec ID/Info                            : Picture based subtitle format used on BDs/HD-DVDs
  139. Duration                                 : 1 h 39 min
  140. Bit rate                                 : 47.3 kb/s
  141. Count of elements                        : 3858
  142. Stream size                              : 33.8 MiB (0%)
  143. Title                                    : Spanish-PGS
  144. Language                                 : Spanish
  145. Default                                  : No
  146. Forced                                   : No

  147. Text #7
  148. ID                                       : 10
  149. Format                                   : PGS
  150. Muxing mode                              : zlib
  151. Codec ID                                 : S_HDMV/PGS
  152. Codec ID/Info                            : Picture based subtitle format used on BDs/HD-DVDs
  153. Duration                                 : 1 h 39 min
  154. Bit rate                                 : 37.9 kb/s
  155. Count of elements                        : 3694
  156. Stream size                              : 27.1 MiB (0%)
  157. Title                                    : Dutch_PGS
  158. Language                                 : Dutch
  159. Default                                  : No
  160. Forced                                   : No

  161. Text #8
  162. ID                                       : 11
  163. Format                                   : PGS
  164. Muxing mode                              : zlib
  165. Codec ID                                 : S_HDMV/PGS
  166. Codec ID/Info                            : Picture based subtitle format used on BDs/HD-DVDs
  167. Duration                                 : 1 h 39 min
  168. Bit rate                                 : 45.6 kb/s
  169. Count of elements                        : 3860
  170. Stream size                              : 32.6 MiB (0%)
  171. Title                                    : Spanish-PGS
  172. Language                                 : Spanish
  173. Default                                  : No
  174. Forced                                   : No

  175. Text #9
  176. ID                                       : 12
  177. Format                                   : PGS
  178. Muxing mode                              : zlib
  179. Codec ID                                 : S_HDMV/PGS
  180. Codec ID/Info                            : Picture based subtitle format used on BDs/HD-DVDs
  181. Duration                                 : 1 h 39 min
  182. Bit rate                                 : 43.9 kb/s
  183. Count of elements                        : 3848
  184. Stream size                              : 31.4 MiB (0%)
  185. Title                                    : Portuguese-PGS
  186. Language                                 : Portuguese
  187. Default                                  : No
  188. Forced                                   : No

  189. Menu
  190. 00:00:00.000                             : en:Chapter 1
  191. 00:09:43.040                             : en:Chapter 2
  192. 00:18:17.387                             : en:Chapter 3
  193. 00:29:49.746                             : en:Chapter 4
  194. 00:38:47.033                             : en:Chapter 5
  195. 00:48:44.046                             : en:Chapter 6
  196. 00:57:48.423                             : en:Chapter 7
  197. 01:06:04.251                             : en:Chapter 8
  198. 01:16:23.203                             : en:Chapter 9
  199. 01:25:55.150                             : en:Chapter 10
  200. 01:32:56.320                             : en:Chapter 11

复制代码
复制代码
055913tzpyf8xt7wkxse8f.png 055915dras7zykag7zprcp.png 055917dre5kzde8nzd44an.png 055919jdutd7i3ui3dd2vu.png 055920fqdgelfjjkdwrt7i.png 055922hqz5p6xz0xl86bqb.png 055923l3buv0vbgoi61uwo.png






回复

使用道具 举报

懒得打字嘛,点击右侧快捷回复 【右侧内容,后台自定义】
您需要登录后才可以回帖 登录 | 立即加入

本版积分规则

Archiver| |网站地图

Copyright © 2024 Comsenz Inc. Powered by 蓝光电影网

本站内容由用户自主分享和转载自互联网,转载目的在于传递更多信息,并不代表本网赞同其观点和对其真实性负责。

如有侵权、违反国家法律政策行为,请联系我们,我们会第一时间及时清除和处理!

举报反馈邮箱:4k1080.com@gmail.com

快速回复 返回顶部 返回列表