找回密码

查看: 3615|回复: 8

乐高大电影/LEGO英雄传 The.Lego.Movie.2014.2160p.BluRay.x264.8bit.SDR.DTS-HD.MA.5.1-SWTYBLZ 9.60GB

[复制链接]
蓝光币
1984
发表于 2017-12-20 10:49:00 | 显示全部楼层 |阅读模式
055946u8wv50wzvxc8qc2q.jpg
◎译  名 乐高峻电影/LEGO豪杰传/乐高玩电影
◎片  名 The Lego Movie
◎年  代 2014
◎产  地 美国/澳大利亚/丹麦
◎类  别 笑剧/动画/冒险
◎语  言 英语
◎上映日期 2014-02-07(美国)
◎IMDb评分  7.8/10 from 277,864 users
◎IMDb链接  http://www.imdb.com/title/tt1490017/
◎豆瓣评分 7.9/10 from 38,215 users
◎豆瓣链接 https://movie.douban.com/subject/3927734/
◎片  长 100分钟
◎导  演 菲尔·罗德 Phil Lord / 克里斯托弗·米勒 Christopher Miller
◎主  演 克里斯·帕拉特 Chris Pratt
      威尔·法瑞尔 Will Ferrell
      伊丽莎白·班克斯 Elizabeth Banks
      威尔·阿奈特 Will Arnett
      连姆·尼森 Liam Neeson
      摩根·弗里曼 Morgan Freeman
      查宁·塔图姆 Channing Tatum
      尼克·奥弗曼 Nick Offerman
      爱丽森·布里 Alison Brie
      查理·戴 Charlie Day
      乔纳·希尔 Jonah Hill
      寇碧·史莫德斯 Cobie Smulders
      大卫·布伦斯 David Burrows
      安东尼·丹尼尔斯 Anthony Daniels
      威尔·福特 Will Forte
      比利·迪·威廉姆斯 Billy Dee Williams
      基思·弗格森 Keith Ferguson
      沙奎尔·奥尼尔 Shaquille O'Neal
      杰登·桑德 Jadon Sand
      戴夫·弗兰科 Dave Franco
      杰克·约翰逊 Jake M. Johnson

◎简  介

  艾米特(克里斯·帕拉特 Chris Pratt 配音)是乐高天下中一个普通到没有存在感的修建师,他天天精神饱满,悲观向上,依照说明书的指示处置一天的活动。某天收工后,他意外掉入一个深洞,后背还黏了希奇的工具,随后就被兼具泼辣和善良两面的差人(利亚姆·尼森 Liam Neeson 配音)带走问话。本来统治乐高天下的买卖王(威尔·法瑞尔 Will Ferrell 配音)对那些极富缔造力的小人极为不满,他厌恶分歧系列的乐高天下相互穿插,更厌恶离开了说明书独辟门路的发现缔造。是以他将一切天下离隔,软禁了那些创意大师,还策划着一场可怕的诡计。艾米特危机时辰被露西(伊丽莎白·班克斯 Elizabeth Banks 配音)救下,并被先知维特鲁维斯(摩根·弗里曼 Morgan Freeman 配音)认定为救世主。
  狂风雨般的迫害袭向创意大师们,设想力窘蹙的艾米特能否担此重任?

◎获奖情况

  第87届奥斯卡金像奖  (2015)
  最好原创歌曲(提名)

  第72届金球奖  (2015)
  电影类 最好动画长片(提名)

  第42届动画安妮奖  (2015)
  最好动画长片(提名)
  最好导演(提名) 克里斯·麦凯 / 菲尔·罗德 / 克里斯托弗·米勒
  最好编剧 菲尔·罗德 / 克里斯托弗·米勒
  最好艺术指导(提名) Grant Freckelton
  最好剪辑(提名)
  最好动画结果(提名)

  第80届纽约影评人协会奖  (2014)
  最好动画片

  第86届美国国家批评协会奖  (2014)
  最好原创剧本
  年度佳片

  第13届华盛顿影评人协会奖  (2014)
  最好原创剧本(提名) 菲尔·罗德 / 克里斯托弗·米勒
  最好动画片

  第40届洛杉矶影评人协会奖  (2014)
  最好动画片(提名) 菲尔·罗德 / 克里斯托弗·米勒

  第16届美国青少年挑选奖  (2014)
  最好动画片(提名)
  最好动画配音(提名) 克里斯·普拉特

  第1届豆瓣电影年度榜单  (2014)
  评分最高的动画片(提名)



  1. Video
  2. ID                                       : 1
  3. Format                                   : AVC
  4. Format/Info                              : Advanced Video Codec
  5. Format profile                           : [email]High@L5.1[/email]
  6. Format settings                          : CABAC / 7 Ref Frames
  7. Format settings, CABAC                   : Yes
  8. Format settings, RefFrames               : 7 frames
  9. Codec ID                                 : V_MPEG4/ISO/AVC
  10. Duration                                 : 1 h 40 min
  11. Bit rate                                 : 10.5 Mb/s
  12. Width                                    : 3 840 pixels
  13. Height                                   : 1 600 pixels
  14. Display aspect ratio                     : 2.40:1
  15. Frame rate mode                          : Constant
  16. Frame rate                               : 23.976 (24000/1001) FPS
  17. Color space                              : YUV
  18. Chroma subsampling                       : 4:2:0
  19. Bit depth                                : 8 bits
  20. Scan type                                : Progressive
  21. Bits/(Pixel*Frame)                       : 0.071
  22. Stream size                              : 7.38GB (77%)
  23. Writing library                          : x264 core 148 r2748 97eaef2
  24. Encoding settings                        : cabac=1 / ref=7 / deblock=1:1:1 / analyse=0x3:0x113 / me=umh / subme=10 / psy=1 / psy_rd=0.40:0.00 / mixed_ref=1 / me_range=48 / chroma_me=1 / trellis=2 / 8x8dct=1 / cqm=0 / deadzone=21,11 / fast_pskip=1 / chroma_qp_offset=-2 / threads=50 / lookahead_threads=5 / sliced_threads=0 / nr=0 / decimate=0 / interlaced=0 / bluray_compat=0 / constrained_intra=0 / bframes=5 / b_pyramid=2 / b_adapt=2 / b_bias=0 / direct=3 / weightb=1 / open_gop=0 / weightp=2 / keyint=250 / keyint_min=23 / scenecut=40 / intra_refresh=0 / rc_lookahead=50 / rc=crf / mbtree=1 / crf=18.0 / qcomp=0.60 / qpmin=0 / qpmax=69 / qpstep=4 / ip_ratio=1.40 / aq=1:0.60
  25. Language                                 : English
  26. Default                                  : Yes
  27. Forced                                   : No

  28. Audio #1
  29. ID                                       : 2
  30. Format                                   : DTS
  31. Format/Info                              : Digital Theater Systems
  32. Format profile                           : MA / Core
  33. Codec ID                                 : A_DTS
  34. Duration                                 : 1 h 40 min
  35. Bit rate mode                            : Variable / Constant
  36. Bit rate                                 : 2 259 kb/s / 1 509 kb/s
  37. Channel(s)                               : 6 channels
  38. Channel positions                        : Front: L C R, Side: L R, LFE
  39. Sampling rate                            : 48.0 kHz
  40. Frame rate                               : 93.750 FPS (512 SPF)
  41. Bit depth                                : 16 bits
  42. Compression mode                         : Lossless / Lossy
  43. Stream size                              : 1.59GB (17%)
  44. Title                                    : The.Lego.Movie.2014.2160p.BluRay.REMUX.HEVC.DTS-HD.MA.5.1-FGT
  45. Language                                 : English
  46. Default                                  : Yes
  47. Forced                                   : No

  48. Audio #2
  49. ID                                       : 3
  50. Format                                   : AC-3
  51. Format/Info                              : Audio Coding 3
  52. Codec ID                                 : A_AC3
  53. Duration                                 : 1 h 40 min
  54. Bit rate mode                            : Constant
  55. Bit rate                                 : 640 kb/s
  56. Channel(s)                               : 6 channels
  57. Channel positions                        : Front: L C R, Side: L R, LFE
  58. Sampling rate                            : 48.0 kHz
  59. Frame rate                               : 31.250 FPS (1536 SPF)
  60. Bit depth                                : 16 bits
  61. Compression mode                         : Lossy
  62. Stream size                              : 460 MiB (5%)
  63. Language                                 : English
  64. Service kind                             : Complete Main
  65. Default                                  : No
  66. Forced                                   : No

  67. Text #1
  68. ID                                       : 4
  69. Format                                   : UTF-8
  70. Codec ID                                 : S_TEXT/UTF8
  71. Codec ID/Info                            : UTF-8 Plain Text
  72. Duration                                 : 1 h 38 min
  73. Bit rate                                 : 78 b/s
  74. Count of elements                        : 1975
  75. Stream size                              : 56.6 KiB (0%)
  76. Title                                    : English-SRT
  77. Language                                 : English
  78. Default                                  : Yes
  79. Forced                                   : No

  80. Text #2
  81. ID                                       : 5
  82. Format                                   : PGS
  83. Muxing mode                              : zlib
  84. Codec ID                                 : S_HDMV/PGS
  85. Codec ID/Info                            : Picture based subtitle format used on BDs/HD-DVDs
  86. Duration                                 : 1 h 39 min
  87. Bit rate                                 : 51.4 kb/s
  88. Count of elements                        : 4308
  89. Stream size                              : 36.7 MiB (0%)
  90. Title                                    : English-PGS
  91. Language                                 : English
  92. Default                                  : No
  93. Forced                                   : No

  94. Text #3
  95. ID                                       : 6
  96. Format                                   : PGS
  97. Muxing mode                              : zlib
  98. Codec ID                                 : S_HDMV/PGS
  99. Codec ID/Info                            : Picture based subtitle format used on BDs/HD-DVDs
  100. Duration                                 : 1 h 39 min
  101. Bit rate                                 : 35.1 kb/s
  102. Count of elements                        : 3470
  103. Stream size                              : 25.0 MiB (0%)
  104. Title                                    : French-PGS
  105. Language                                 : French
  106. Default                                  : No
  107. Forced                                   : No

  108. Text #4
  109. ID                                       : 7
  110. Format                                   : PGS
  111. Muxing mode                              : zlib
  112. Codec ID                                 : S_HDMV/PGS
  113. Codec ID/Info                            : Picture based subtitle format used on BDs/HD-DVDs
  114. Duration                                 : 1 h 39 min
  115. Bit rate                                 : 56.8 kb/s
  116. Count of elements                        : 4306
  117. Stream size                              : 40.6 MiB (0%)
  118. Title                                    : German-PGS
  119. Language                                 : German
  120. Default                                  : No
  121. Forced                                   : No

  122. Text #5
  123. ID                                       : 8
  124. Format                                   : PGS
  125. Muxing mode                              : zlib
  126. Codec ID                                 : S_HDMV/PGS
  127. Codec ID/Info                            : Picture based subtitle format used on BDs/HD-DVDs
  128. Duration                                 : 1 h 39 min
  129. Bit rate                                 : 50.1 kb/s
  130. Count of elements                        : 4340
  131. Stream size                              : 35.8 MiB (0%)
  132. Title                                    : Italian-PGS
  133. Language                                 : Italian
  134. Default                                  : No
  135. Forced                                   : No

  136. Text #6
  137. ID                                       : 9
  138. Format                                   : PGS
  139. Muxing mode                              : zlib
  140. Codec ID                                 : S_HDMV/PGS
  141. Codec ID/Info                            : Picture based subtitle format used on BDs/HD-DVDs
  142. Duration                                 : 1 h 39 min
  143. Bit rate                                 : 47.3 kb/s
  144. Count of elements                        : 3858
  145. Stream size                              : 33.8 MiB (0%)
  146. Title                                    : Spanish-PGS
  147. Language                                 : Spanish
  148. Default                                  : No
  149. Forced                                   : No

  150. Text #7
  151. ID                                       : 10
  152. Format                                   : PGS
  153. Muxing mode                              : zlib
  154. Codec ID                                 : S_HDMV/PGS
  155. Codec ID/Info                            : Picture based subtitle format used on BDs/HD-DVDs
  156. Duration                                 : 1 h 39 min
  157. Bit rate                                 : 37.9 kb/s
  158. Count of elements                        : 3694
  159. Stream size                              : 27.1 MiB (0%)
  160. Title                                    : Dutch_PGS
  161. Language                                 : Dutch
  162. Default                                  : No
  163. Forced                                   : No

  164. Text #8
  165. ID                                       : 11
  166. Format                                   : PGS
  167. Muxing mode                              : zlib
  168. Codec ID                                 : S_HDMV/PGS
  169. Codec ID/Info                            : Picture based subtitle format used on BDs/HD-DVDs
  170. Duration                                 : 1 h 39 min
  171. Bit rate                                 : 45.6 kb/s
  172. Count of elements                        : 3860
  173. Stream size                              : 32.6 MiB (0%)
  174. Title                                    : Spanish-PGS
  175. Language                                 : Spanish
  176. Default                                  : No
  177. Forced                                   : No

  178. Text #9
  179. ID                                       : 12
  180. Format                                   : PGS
  181. Muxing mode                              : zlib
  182. Codec ID                                 : S_HDMV/PGS
  183. Codec ID/Info                            : Picture based subtitle format used on BDs/HD-DVDs
  184. Duration                                 : 1 h 39 min
  185. Bit rate                                 : 43.9 kb/s
  186. Count of elements                        : 3848
  187. Stream size                              : 31.4 MiB (0%)
  188. Title                                    : Portuguese-PGS
  189. Language                                 : Portuguese
  190. Default                                  : No
  191. Forced                                   : No

  192. Menu
  193. 00:00:00.000                             : en:Chapter 1
  194. 00:09:43.040                             : en:Chapter 2
  195. 00:18:17.387                             : en:Chapter 3
  196. 00:29:49.746                             : en:Chapter 4
  197. 00:38:47.033                             : en:Chapter 5
  198. 00:48:44.046                             : en:Chapter 6
  199. 00:57:48.423                             : en:Chapter 7
  200. 01:06:04.251                             : en:Chapter 8
  201. 01:16:23.203                             : en:Chapter 9
  202. 01:25:55.150                             : en:Chapter 10
  203. 01:32:56.320                             : en:Chapter 11

复制代码
复制代码
055947qpuvnn9axnbx0uvx.png 055948p44et778y77txa4c.png 055949z9ddsjvejmllhmql.png 055950d73mhumqnq8ghvm8.png 055951f92d2zdr35d3xay0.png 055952var9s2h6fch69oeh.png 055952mvs92w12ssws308f.png






回复

使用道具 举报

蓝光币
899
发表于 2017-12-23 13:42:52 | 显示全部楼层

感谢楼主分享精彩电影!
回复

使用道具 举报

懒得打字嘛,点击右侧快捷回复 【右侧内容,后台自定义】
您需要登录后才可以回帖 登录 | 立即加入

本版积分规则

Archiver| |网站地图

Copyright © 2024 Comsenz Inc. Powered by 蓝光电影网

本站内容由用户自主分享和转载自互联网,转载目的在于传递更多信息,并不代表本网赞同其观点和对其真实性负责。

如有侵权、违反国家法律政策行为,请联系我们,我们会第一时间及时清除和处理!

举报反馈邮箱:4k1080.com@gmail.com

快速回复 返回顶部 返回列表