找回密码

查看: 3413|回复: 1

[奇幻] CC标准版.魅惑.The Lure.2015.PL.CC.#896.BluRay.1920x808p.x264.DTS-KOOK.[中英双字] 6.

[复制链接]
蓝光币
1974
发表于 2017-12-20 14:59:59 | 显示全部楼层 |阅读模式
魅惑.The Lure.2015.PL.CC.#896.BluRay.1920x808p.x264.DTS-KOOK.[中英双字] 6.58GB
165912pkvvuw3wu3q2mrov.jpg
165913o6e4es3stks794t2.jpg
中笔墨幕字幕来历:奇遇电影字幕组
英笔墨幕来历:蓝光原盘
※※※※※※※ 影片信息 ※※※※※※※
◎片   名 Córki dancingu
◎译   名 魅惑 / 魅惑人鱼姬 / 人鱼引诱 / 引诱 / The Lure
◎年   代 2015
◎国   家 波兰
◎类   别 剧情 / 歌舞 / 奇异
◎语   言 波兰语
◎上映日 期 2015-12-25(波兰)
◎字   幕 中英双字/简体字幕/繁体字幕/英笔墨幕
◎IMDB 评分  6.3/10 from 2431 users
◎豆瓣 评分  5.9/10 from 805 users
◎视频尺 寸  1920x808p
◎片   长 1.32.28
◎导   演 阿格涅斯卡·斯莫克钦斯卡
◎编     剧  罗伯特·博勒斯德
◎主   演 玛塔·马祖雷克 / 米卡丽娜·欧赞思佳 / 金嘉·普雷斯 / 安德烈·卡诺普卡 / 雅酷朴·盖尔秀
Criterion Collection. 标准收藏  #869

◎简  介
  一对美人鱼姐妹,银和金,在陆地上寻觅他们的胡想天堂。歌舞光辉,灯光闪烁的夜生活让两姐妹留连忘返。乐队三人组的主唱密斯收养了她们,带两姐妹看遍人世富贵,并让她们在舞台上发光发热,两姐妹的歌声获得了观众的认可。在与人类相处的进程中,两姐妹渐渐领会到人性善与恶。
  野性的金由于被社会富贵的影响,兽性突显,噬人成魔。纯真的银爱上了人类,乐队里的帅贝斯手,两人堕入热恋,但是贝斯手希望银能酿成实在的女孩子。银愿意为爱人支出一切,即利用尾巴换成双脚后会落空美好的歌声。但是两人的豪情却逃不外外界的引诱,贝斯手出轨并要与其他人成婚。
  银必须在婚礼当晚天亮前吃了变节她的爱人,否则自己将在第二天天亮前化成泡沫消失。但是银没有下狠心,最初在爱人的拥抱里,带着浅笑化成了泡沫。金由于落空相依为命的姐妹,再次落空明智,咬死了贝斯手,失望的回到了海里。”
第32届圣丹斯电影节 评审团大奖 天下电影单元剧情片(提名)
※※※※※※※ 参数信息 ※※※※※※※
General
Unique ID                      : 170277986266717771623410551820856756280 (0x801A58E62B4FA3F0929A3C58094A8838)
Format                         : Matroska
Format version                 : Version 4 / Version 2
File size                      : 6.59GB
Duration                       : 1h 32mn
Overall bit rate               : 10.2 Mbps
Encoded date                   : UTC 2017-11-17 04:24:57
Writing application            : mkvmerge v7.7.0 ( Six Voices ) 32bit built on Feb 28 2015 23:23:00
Writing library                : libebml v1.3.1 + libmatroska v1.4.2
Attachements                   : CC蓝光.jpg / msyh.ttf / msyhbd.ttf
Video
ID                             : 1
Format                         : AVC
Format/Info                    : Advanced Video Codec
Format profile                 : High@L4.1
Format settings, CABAC         : Yes
Format settings, ReFrames      : 5 frames
Codec ID                       : V_MPEG4/ISO/AVC
Duration                       : 1h 32mn
Bit rate                       : 8 643 Kbps
Width                          : 1 920 pixels
Height                         : 808 pixels
Display aspect ratio           : 2.40:1
Frame rate mode                : Constant
Frame rate                     : 23.976 (24000/1001) fps
Color space                    : YUV
Chroma subsampling             : 4:2:0
Bit depth                      : 8 bits
Scan type                      : Progressive
Bits/(Pixel*Frame)             : 0.232
Stream size                    : 5.58GB (85%)
Title                          : kook
Writing library                : x264 core 152 r2851 ba24899
Encoding settings              : cabac=1 / ref=5 / deblock=1:0:0 / analyse=0x3:0x133 / me=umh / subme=7 / psy=1 / psy_rd=1.00:0.00 / mixed_ref=1 / me_range=16 / chroma_me=1 / trellis=1 / 8x8dct=1 / cqm=0 / deadzone=21,11 / fast_pskip=0 / chroma_qp_offset=-2 / threads=24 / lookahead_threads=4 / sliced_threads=0 / nr=0 / decimate=1 / interlaced=0 / bluray_compat=0 / constrained_intra=0 / bframes=3 / b_pyramid=2 / b_adapt=1 / b_bias=0 / direct=1 / weightb=1 / open_gop=0 / weightp=2 / keyint=250 / keyint_min=23 / scenecut=40 / intra_refresh=0 / rc_lookahead=40 / rc=2pass / mbtree=1 / bitrate=8643 / ratetol=1.0 / qcomp=0.60 / qpmin=0 / qpmax=69 / qpstep=4 / cplxblur=20.0 / qblur=0.5 / ip_ratio=1.40 / aq=1:1.00
Language                       : Polish
Default                        : Yes
Forced                         : No
Audio
ID                             : 2
Format                         : DTS
Format/Info                    : Digital Theater Systems
Mode                           : 16
Format settings, Endianness    : Big
Codec ID                       : A_DTS
Duration                       : 1h 32mn
Bit rate mode                  : Constant
Bit rate                       : 1 509 Kbps
Channel(s)                     : 6 channels
Channel positions              : Front: L C R, Side: L R, LFE
Sampling rate                  : 48.0 KHz
Frame rate                     : 93.750 fps (512 spf)
Bit depth                      : 24 bits
Compression mode               : Lossy
Stream size                    : 998 MiB (15%)
Language                       : Polish
Default                        : Yes
Forced                         : No
Text #1
ID                             : 3
Format                         : ASS
Codec ID                       : S_TEXT/ASS
Codec ID/Info                  : Advanced Sub Station Alpha
Duration                       : 1h 31mn
Bit rate                       : 100 bps
Count of elements              : 531
Compression mode               : Lossless
Stream size                    : 67.2 KiB (0%)
Title                          : 中英字幕
Language                       : Chinese
Default                        : Yes
Forced                         : No
Text #2
ID                             : 4
Format                         : ASS
Codec ID                       : S_TEXT/ASS
Codec ID/Info                  : Advanced Sub Station Alpha
Duration                       : 1h 31mn
Bit rate                       : 56 bps
Count of elements              : 531
Compression mode               : Lossless
Stream size                    : 37.9 KiB (0%)
Title                          : 简体字幕
Language                       : Chinese
Default                        : No
Forced                         : No
Text #3
ID                             : 5
Format                         : ASS
Codec ID                       : S_TEXT/ASS
Codec ID/Info                  : Advanced Sub Station Alpha
Duration                       : 1h 31mn
Bit rate                       : 56 bps
Count of elements              : 531
Compression mode               : Lossless
Stream size                    : 37.9 KiB (0%)
Title                          : 繁体字幕
Language                       : Chinese
Default                        : No
Forced                         : No
Text #4
ID                             : 6
Format                         : ASS
Codec ID                       : S_TEXT/ASS
Codec ID/Info                  : Advanced Sub Station Alpha
Duration                       : 1h 31mn
Bit rate                       : 66 bps
Count of elements              : 529
Compression mode               : Lossless
Stream size                    : 44.7 KiB (0%)
Title                          : 英笔墨幕
Language                       : English
Default                        : No
Forced                         : No
165914hc7i0700cz3ss707.jpg





回复

使用道具 举报

蓝光币
7
发表于 2019-5-30 19:00:06 | 显示全部楼层

谢谢楼主分享!
回复

使用道具 举报

懒得打字嘛,点击右侧快捷回复 【右侧内容,后台自定义】
您需要登录后才可以回帖 登录 | 立即加入

本版积分规则

Archiver| |网站地图

Copyright © 2024 Comsenz Inc. Powered by 蓝光电影网

本站内容由用户自主分享和转载自互联网,转载目的在于传递更多信息,并不代表本网赞同其观点和对其真实性负责。

如有侵权、违反国家法律政策行为,请联系我们,我们会第一时间及时清除和处理!

举报反馈邮箱:4k1080.com@gmail.com

快速回复 返回顶部 返回列表