找回密码

查看: 5863|回复: 1

[剧情] 石之痛/炽恋 From.the.Land.of.the.Moon.2016.LIMITED.1080p.BluRay.x264-USURY 9.83GB

[复制链接]
蓝光币
1974
发表于 2017-12-20 15:02:47 | 显示全部楼层 |阅读模式
030641rgwhzgiibhgx6zyj.jpg
◎译  名 石之痛 / 炽恋 / 迷情花月 / 米粒之石 / From the Land of the Moon
◎片  名 石之痛 Mal de pierres
◎年  代 2016
◎国  家 法国 / 比利时 / 加拿大
◎类  别 剧情 / 恋爱
◎语  言 法语 / 西班牙语 / 德语
◎上映日期 2016-05-15(戛纳电影节) / 2016-10-19(法国)
◎IMDb评分  6.7/10 from 2,841 users
◎IMDb链接  http://www.imdb.com/title/tt3794028/
◎豆瓣评分 6.3/10 from 582 users
◎豆瓣链接 https://movie.douban.com/subject/26051524/
◎片  长 120分钟
◎导  演 妮可·加西亚
◎主  演 玛丽昂·歌迪亚 Marion Cotillard
      路易·加瑞尔 Louis Garrel
      亚历克斯·布伦德穆尔 àlex Brendemühl
      布里吉特·罗安 Brigitte Roüan
      维克托瓦尔·杜·波依斯 Victoire Du Bois
      阿罗伊斯·索维奇 Alo?se Sauvage
      丹尼尔·帕拉 Daniel Para
      金基万 Jihwan Kim
      维克托·奎利奇尼 Victor Quilichini
      弗朗西斯科·阿方辛 Francisco Alfonsin
      亚瑟·伊瓜尔 Arthur Igual
      热罗姆·夏帕特 Jér?me Chappatte

◎简  介 

  加布里埃尔长大在法国南部小镇的一个小农资产阶级家庭。在这里,她对真爱的渴望与追求被视为丑闻,人们也是以以为她大如果精神庞杂了。她的双亲将她嫁给了何塞,一个老实而好心地的西班牙农场工人,并期待何塞能帮加布里埃尔成为一个值得尊重的女人。虽然何塞对她各式照顾,可加布里埃尔却立誓她不成能爱他,她感受自己活得向一位犯人。当她被送到温泉疗养地去治疗肾结石时,她碰到了安德烈 ?索瓦热——一个在印度支那战争中受伤的中尉,他重新燃起了她心中对爱的热情。她向他立誓要一路私奔,而他似乎也回应了她的欲求。此次,还有人敢夺走加布里埃尔追求她胡想的权利吗?

◎获奖情况 

  第69届戛纳电影节 (2016)
  主比赛单元 金棕榈奖(提名) 妮可·加西亚



  1. Video
  2. ID                                       : 1
  3. Format                                   : AVC
  4. Format/Info                              : Advanced Video Codec
  5. Format profile                           : [email]High@L4.1[/email]
  6. Format settings                          : CABAC / 5 Ref Frames
  7. Format settings, CABAC                   : Yes
  8. Format settings, RefFrames               : 5 frames
  9. Codec ID                                 : V_MPEG4/ISO/AVC
  10. Duration                                 : 2 h 0 min
  11. Bit rate                                 : 10.2 Mb/s
  12. Width                                    : 1 920 pixels
  13. Height                                   : 800 pixels
  14. Display aspect ratio                     : 2.40:1
  15. Frame rate mode                          : Constant
  16. Frame rate                               : 24.000 FPS
  17. Color space                              : YUV
  18. Chroma subsampling                       : 4:2:0
  19. Bit depth                                : 8 bits
  20. Scan type                                : Progressive
  21. Bits/(Pixel*Frame)                       : 0.275
  22. Stream size                              : 8.56GB (87%)
  23. Writing library                          : x264 core 152 r2851 ba24899
  24. Encoding settings                        : cabac=1 / ref=5 / deblock=1:-3:-3 / analyse=0x3:0x133 / me=umh / subme=9 / psy=1 / psy_rd=1.00:0.00 / mixed_ref=1 / me_range=16 / chroma_me=1 / trellis=2 / 8x8dct=1 / cqm=0 / deadzone=21,11 / fast_pskip=0 / chroma_qp_offset=-2 / threads=24 / lookahead_threads=2 / sliced_threads=0 / nr=0 / decimate=1 / interlaced=0 / bluray_compat=0 / constrained_intra=0 / bframes=3 / b_pyramid=2 / b_adapt=1 / b_bias=0 / direct=3 / weightb=1 / open_gop=0 / weightp=2 / keyint=240 / keyint_min=24 / scenecut=40 / intra_refresh=0 / rc_lookahead=50 / rc=2pass / mbtree=1 / bitrate=10155 / ratetol=1.0 / qcomp=0.60 / qpmin=0 / qpmax=69 / qpstep=4 / cplxblur=20.0 / qblur=0.5 / ip_ratio=1.40 / aq=1:1.00
  25. Language                                 : English
  26. Default                                  : Yes
  27. Forced                                   : No

  28. Audio
  29. ID                                       : 2
  30. Format                                   : DTS
  31. Format/Info                              : Digital Theater Systems
  32. Mode                                     : 16
  33. Format settings, Endianness              : Big
  34. Codec ID                                 : A_DTS
  35. Duration                                 : 2 h 0 min
  36. Bit rate mode                            : Constant
  37. Bit rate                                 : 1 509 kb/s
  38. Channel(s)                               : 6 channels
  39. Channel positions                        : Front: L C R, Side: L R, LFE
  40. Sampling rate                            : 48.0 kHz
  41. Frame rate                               : 93.750 FPS (512 SPF)
  42. Bit depth                                : 24 bits
  43. Compression mode                         : Lossy
  44. Stream size                              : 1.27GB (13%)
  45. Language                                 : French
  46. Default                                  : Yes
  47. Forced                                   : No

  48. Text #1
  49. ID                                       : 3
  50. Format                                   : UTF-8
  51. Codec ID                                 : S_TEXT/UTF8
  52. Codec ID/Info                            : UTF-8 Plain Text
  53. Duration                                 : 1 h 59 min
  54. Bit rate                                 : 20 b/s
  55. Count of elements                        : 813
  56. Stream size                              : 17.9 KiB (0%)
  57. Title                                    : English
  58. Language                                 : English
  59. Default                                  : Yes
  60. Forced                                   : Yes

  61. Text #2
  62. ID                                       : 4
  63. Format                                   : UTF-8
  64. Codec ID                                 : S_TEXT/UTF8
  65. Codec ID/Info                            : UTF-8 Plain Text
  66. Duration                                 : 2 h 0 min
  67. Bit rate                                 : 24 b/s
  68. Count of elements                        : 995
  69. Stream size                              : 21.8 KiB (0%)
  70. Title                                    : English SDH
  71. Language                                 : English
  72. Default                                  : No
  73. Forced                                   : No

  74. Menu
  75. 00:00:00.000                             : en:00:00:00.000
  76. 00:09:13.292                             : en:00:09:13.292
  77. 00:20:17.625                             : en:00:20:17.625
  78. 00:30:15.792                             : en:00:30:15.792
  79. 00:41:17.833                             : en:00:41:17.833
  80. 00:51:22.542                             : en:00:51:22.542
  81. 00:59:30.542                             : en:00:59:30.542
  82. 01:09:09.542                             : en:01:09:09.542
  83. 01:18:47.167                             : en:01:18:47.167
  84. 01:30:38.042                             : en:01:30:38.042
  85. 01:38:45.375                             : en:01:38:45.375
  86. 01:50:58.375                             : en:01:50:58.375
  87. 01:55:43.167                             : en:01:55:43.167




复制代码
复制代码
030643ciwshzf7kbvhfdwh.jpg






回复

使用道具 举报

懒得打字嘛,点击右侧快捷回复 【右侧内容,后台自定义】
您需要登录后才可以回帖 登录 | 立即加入

本版积分规则

Archiver| |网站地图

Copyright © 2024 Comsenz Inc. Powered by 蓝光电影网

本站内容由用户自主分享和转载自互联网,转载目的在于传递更多信息,并不代表本网赞同其观点和对其真实性负责。

如有侵权、违反国家法律政策行为,请联系我们,我们会第一时间及时清除和处理!

举报反馈邮箱:4k1080.com@gmail.com

快速回复 返回顶部 返回列表