找回密码

查看: 5160|回复: 4

[爱情] 露西亚的情人.Sex and Lucia.2001.ES.FR.BluRay.1920x816p.x264.DTS-KOOK.[西语中字] 12.8GB

[复制链接]
蓝光币
1984
发表于 2017-12-20 15:07:45 | 显示全部楼层 |阅读模式
露西亚的情人.Sex and Lucia.2001.ES.FR.BluRay.1920x816p.x264.DTS-KOOK.[西语中字] 12.8GB
233250nenkiakk9ozirzg1.jpg
233252evjre828papr8bbr.jpg
※※※※※※※ 影片信息 ※※※※※※※
◎片   名 Lucía y el sexo
◎译   名 露西亚的情人 / 性和露西娅 / 露西雅与欲乐园 / 露茜娅的情人 / Sex and Lucia
◎年   代 2001
◎国   家 西班牙 / 法国
◎类   别 剧情 / 恋爱 / 情色
◎语   言 西班牙语 / 英语
◎上映日 期 2001-08-24(西班牙)
◎字   幕 简体字幕/繁体字幕
◎IMDB 评分  7.2/10 from 31297 users
◎豆瓣 评分  7.6/10 from 19565 users
◎视频尺 寸  1920x816p
◎片   长 2.07.51
◎导   演 胡里奥·密谭
◎编     剧  胡里奥·密谭
◎主   演 帕斯·贝加 / 特里斯坦·乌罗阿 / 纳瓦·尼姆利 / 丹尼尔弗莱雷 / 埃伦娜·安纳亚

◎简  介
  风骚倜傥的小说家洛伦佐(Tristán Ulloa 饰)在遭受创作瓶颈之际相逢了自己的崇敬者露西亚(Paz Vega 帕兹?维嘉 饰)——一位在咖啡馆工作的女招待。她扑灭了洛伦佐寂静已久的豪情,两人起头一段愉快刺激的同居生活。偶然机遇,洛伦佐得知自己具有一个女儿,那是他一年前在海边夜晚的所留下的艳遇结晶。自此他的心情重归急躁,他私下寻觅女儿,却将小说中的情节和现实混为一谈。
  露西亚和洛伦佐的恋爱起头出现龃龉,某晚在接到差人一通电话以后,她逃离这座压制烦闷的城市,来到爱人已经倘佯的海边……
※※※※※※※ 参数信息 ※※※※※※※
General
Unique ID                      : 175961497999159096702522223187672374713 (0x8460F3A987D4C67394B58F9601E71DB9)
Format                         : Matroska
Format version                 : Version 4 / Version 2
File size                      : 12.9GB
Duration                       : 2h 7mn
Overall bit rate               : 14.4 Mbps
Encoded date                   : UTC 2017-11-24 15:40:16
Writing application            : mkvmerge v7.7.0 ( Six Voices ) 32bit built on Feb 28 2015 23:23:00
Writing library                : libebml v1.3.1 + libmatroska v1.4.2
Attachements                   : 正式海报.jpg / msyh.ttf / msyhbd.ttf
Video
ID                             : 1
Format                         : AVC
Format/Info                    : Advanced Video Codec
Format profile                 : Main@L4
Format settings, CABAC         : Yes
Format settings, ReFrames      : 1 frame
Format settings, GOP           : M=1, N=12
Codec ID                       : V_MPEG4/ISO/AVC
Duration                       : 2h 7mn
Bit rate mode                  : Constant
Bit rate                       : 13.0 Mbps
Width                          : 1 920 pixels
Height                         : 816 pixels
Display aspect ratio           : 2.35:1
Frame rate mode                : Constant
Frame rate                     : 23.976 (23976/1000) fps
Original frame rate            : 24.000 fps
Color space                    : YUV
Chroma subsampling             : 4:2:0
Bit depth                      : 8 bits
Scan type                      : Progressive
Bits/(Pixel*Frame)             : 0.346
Stream size                    : 11.5GB (89%)
Title                          : kook
Default                        : Yes
Forced                         : No
Audio
ID                             : 2
Format                         : DTS
Format/Info                    : Digital Theater Systems
Mode                           : 16
Format settings, Endianness    : Big
Codec ID                       : A_DTS
Duration                       : 2h 7mn
Bit rate mode                  : Constant
Bit rate                       : 1 509 Kbps
Channel(s)                     : 6 channels
Channel positions              : Front: L C R, Side: L R, LFE
Sampling rate                  : 48.0 KHz
Frame rate                     : 93.750 fps (512 spf)
Bit depth                      : 24 bits
Compression mode               : Lossy
Stream size                    : 1.35GB (10%)
Title                          : DTSHD core 5.1 1536k
Language                       : Spanish
Default                        : Yes
Forced                         : No
Text #1
ID                             : 3
Format                         : ASS
Codec ID                       : S_TEXT/ASS
Codec ID/Info                  : Advanced Sub Station Alpha
Duration                       : 2h 5mn
Bit rate                       : 73 bps
Count of elements              : 1208
Compression mode               : Lossless
Stream size                    : 67.4 KiB (0%)
Title                          : 简体字幕
Language                       : Chinese
Default                        : Yes
Forced                         : No
Text #2
ID                             : 4
Format                         : ASS
Codec ID                       : S_TEXT/ASS
Codec ID/Info                  : Advanced Sub Station Alpha
Duration                       : 2h 5mn
Bit rate                       : 73 bps
Count of elements              : 1208
Compression mode               : Lossless
Stream size                    : 67.4 KiB (0%)
Title                          : 繁体字幕
Language                       : Chinese
Default                        : No
Forced                         : No
233252txgoyjvx48jro8rx.jpg
                                                                                                                                                      





回复

使用道具 举报

蓝光币
1108
发表于 2019-7-12 13:52:39 | 显示全部楼层

这东西我收了!谢谢楼主!蓝光电影网真好!
回复

使用道具 举报

蓝光币
103
发表于 2020-8-21 15:37:52 | 显示全部楼层
之前看过DVD 还不错
回复

使用道具 举报

蓝光币
103
发表于 2020-12-4 13:52:32 | 显示全部楼层

感谢楼主的无私分享!要想蓝光电影网好 就靠你我他
回复

使用道具 举报

蓝光币
2609
发表于 2021-1-27 17:03:05 | 显示全部楼层
感谢楼主 无私分享!
回复

使用道具 举报

懒得打字嘛,点击右侧快捷回复 【右侧内容,后台自定义】
您需要登录后才可以回帖 登录 | 立即加入

本版积分规则

Archiver| |网站地图

Copyright © 2024 Comsenz Inc. Powered by 蓝光电影网

本站内容由用户自主分享和转载自互联网,转载目的在于传递更多信息,并不代表本网赞同其观点和对其真实性负责。

如有侵权、违反国家法律政策行为,请联系我们,我们会第一时间及时清除和处理!

举报反馈邮箱:4k1080.com@gmail.com

快速回复 返回顶部 返回列表