找回密码

查看: 3070|回复: 2

[喜剧] 招笑猫/微笑招财猫 Laughing.Lucky.Cats.2017.1080p.BluRay.x264-WiKi 11.00GB

[复制链接]
蓝光币
1982
发表于 2017-12-20 16:17:45 | 显示全部楼层 |阅读模式
163937r90ec0q0cqs0oqdw.jpg
◎译  名 招笑猫 / 浅笑招财猫 / 浅笑的招财猫 / 搞笑招手猫
◎片  名 招笑猫 笑う招き猫
◎年  代 2017
◎国  家 日本
◎类  别 笑剧
◎语  言 日语
◎上映日期 2017-04-29(日本)
◎IMDb评分  今朝无人评价
◎IMDb链接  http://www.imdb.com/title/tt6635042/
◎豆瓣评分 今朝无人评价
◎豆瓣链接 https://movie.douban.com/subject/26964860/
◎片  长 无片长信息
◎导  演 饭塚健
◎主  演 清水富美加 Fumika Shimizu
      松井玲奈 Rena Matsui
      落合扶树 Motoki Ochiai
      荒井敦史
      浜野谦太 Kenta Hamano
      前野朋哉 Tomoya Maeno
      稻叶友 Yu Inaba
      那須晃行
      中西茂樹
      犬飼直紀
      森田想
      诹访太朗 Tar? Suwa
      岩井堂聖子
      岛田久作 Ky?saku Shimada

◎简  介 

  本片报告了女漫才师(类似中国的相声)瞳(清水富美加饰)和亚香子(松井玲奈饰)一路组成年轻的漫才同伴“亚香子和瞳”,在搞笑的天下中虽然饱受挫折却结成坚忍的友谊、不停奋斗、一路追梦的青春动人故事



  1. Video
  2. ID                                       : 1
  3. Format                                   : AVC
  4. Format/Info                              : Advanced Video Codec
  5. Format profile                           : [email]High@L4.1[/email]
  6. Format settings                          : CABAC / 5 Ref Frames
  7. Format settings, CABAC                   : Yes
  8. Format settings, ReFrames                : 5 frames
  9. Codec ID                                 : V_MPEG4/ISO/AVC
  10. Duration                                 : 2 h 7 min
  11. Bit rate                                 : 11.9 Mb/s
  12. Width                                    : 1 920 pixels
  13. Height                                   : 804 pixels
  14. Display aspect ratio                     : 2.40:1
  15. Frame rate mode                          : Constant
  16. Frame rate                               : 23.976 (24000/1001) FPS
  17. Color space                              : YUV
  18. Chroma subsampling                       : 4:2:0
  19. Bit depth                                : 8 bits
  20. Scan type                                : Progressive
  21. Bits/(Pixel*Frame)                       : 0.321
  22. Stream size                              : 10.6GB (96%)
  23. Writing library                          : x264 core 129 r2245+704+36 8e61944 tMod+MixAQ [8-bit@4:2:0 X86_64]
  24. Encoding settings                        : cabac=1 / ref=5 / deblock=1:-3:-3 / analyse=0x3:0x133 / me=umh / subme=11 / psy=1 / fade_compensate=0.00 / psy_rd=1.05:0.10 / mixed_ref=1 / me_range=64 / chroma_me=1 / trellis=2 / 8x8dct=1 / cqm=0 / deadzone=21,11 / fast_pskip=0 / chroma_qp_offset=-3 / threads=18 / lookahead_threads=3 / sliced_threads=0 / nr=0 / decimate=0 / interlaced=0 / bluray_compat=0 / constrained_intra=0 / fgo=0 / bframes=10 / b_pyramid=2 / b_adapt=2 / b_bias=0 / direct=3 / weightb=1 / open_gop=0 / weightp=2 / keyint=250 / keyint_min=23 / scenecut=40 / intra_refresh=0 / rc_lookahead=80 / rc=2pass / mbtree=1 / bitrate=11892 / ratetol=1.0 / qcomp=0.70 / qpmin=0 / qpmax=69 / qpstep=4 / cplxblur=20.0 / qblur=0.5 / ip_ratio=1.40 / aq=1 / aq-strength=0.85 / aq-sensitivity=10.00 / aq-ifactor=1.00 / aq-pfactor=1.00 / aq-bfactor=1.00 / aq2=0
  25. Language                                 : Japanese
  26. Default                                  : Yes
  27. Forced                                   : No

  28. Audio
  29. ID                                       : 2
  30. Format                                   : AC-3
  31. Format/Info                              : Audio Coding 3
  32. Codec ID                                 : A_AC3
  33. Duration                                 : 2 h 7 min
  34. Bit rate mode                            : Constant
  35. Bit rate                                 : 448 kb/s
  36. Channel(s)                               : 6 channels
  37. Channel positions                        : Front: L C R, Side: L R, LFE
  38. Sampling rate                            : 48.0 kHz
  39. Frame rate                               : 31.250 FPS (1536 SPF)
  40. Bit depth                                : 16 bits
  41. Compression mode                         : Lossy
  42. Stream size                              : 409 MiB (4%)
  43. Language                                 : Japanese
  44. Service kind                             : Complete Main
  45. Default                                  : Yes
  46. Forced                                   : No

  47. Text #1
  48. ID                                       : 3
  49. Format                                   : ASS
  50. Codec ID                                 : S_TEXT/ASS
  51. Codec ID/Info                            : Advanced Sub Station Alpha
  52. Duration                                 : 2 h 6 min
  53. Bit rate                                 : 81 b/s
  54. Count of elements                        : 1858
  55. Compression mode                         : Lossless
  56. Stream size                              : 75.0 KiB (0%)
  57. Title                                    : Simplified
  58. Language                                 : Chinese
  59. Default                                  : Yes
  60. Forced                                   : No

  61. Text #2
  62. ID                                       : 4
  63. Format                                   : ASS
  64. Codec ID                                 : S_TEXT/ASS
  65. Codec ID/Info                            : Advanced Sub Station Alpha
  66. Duration                                 : 2 h 6 min
  67. Bit rate                                 : 81 b/s
  68. Count of elements                        : 1859
  69. Compression mode                         : Lossless
  70. Stream size                              : 75.0 KiB (0%)
  71. Title                                    : Traditional
  72. Language                                 : Chinese
  73. Default                                  : No
  74. Forced                                   : No

  75. Menu
  76. 00:00:00.000                             : en:00:00:00.000
  77. 00:12:09.812                             : en:00:12:09.812
  78. 00:27:49.667                             : en:00:27:49.667
  79. 00:46:23.447                             : en:00:46:23.447
  80. 01:05:28.507                             : en:01:05:28.507
  81. 01:19:07.075                             : en:01:19:07.075
  82. 01:41:11.940                             : en:01:41:11.940
  83. 01:56:38.408                             : en:01:56:38.408
  84. 02:07:28.641                             : en:02:07:28.641



复制代码
复制代码
163937mafihifgcj5uuuc0.jpg 163938idtlthhh2rf2lit0.jpg 163938i2r5vta5g1vdizbg.jpg 163938ygd0b4v1kx2k20mz.jpg 163939h7rzinjir7ejjpr7.jpg 163939njboh5xq5qhdbxzd.jpg





回复

使用道具 举报

懒得打字嘛,点击右侧快捷回复 【右侧内容,后台自定义】
您需要登录后才可以回帖 登录 | 立即加入

本版积分规则

Archiver| |网站地图

Copyright © 2024 Comsenz Inc. Powered by 蓝光电影网

本站内容由用户自主分享和转载自互联网,转载目的在于传递更多信息,并不代表本网赞同其观点和对其真实性负责。

如有侵权、违反国家法律政策行为,请联系我们,我们会第一时间及时清除和处理!

举报反馈邮箱:4k1080.com@gmail.com

快速回复 返回顶部 返回列表