找回密码

查看: 2616|回复: 1

[剧情] 西尔玛 Thelma.2017.NORWEGIAN.1080p.BluRay.x264-WASTE 8.74GB

[复制链接]
蓝光币
1982
发表于 2017-12-20 16:33:55 | 显示全部楼层 |阅读模式
005115afuf89unu8u9n057.jpg
◎译  名 西尔玛
◎片  名 西尔玛 Thelma
◎年  代 2017
◎国  家 挪威 / 法国 / 丹麦 / 瑞典
◎类  别 剧情 / 科幻 / 惊悚 / 同性
◎语  言 挪威语
◎上映日期 2017-08-20(挪威电影节) / 2017-09-15(挪威)
◎IMDb评分  7.4/10 from 1,964 users
◎IMDb链接  http://www.imdb.com/title/tt6304046/
◎豆瓣评分 6.9/10 from 278 users
◎豆瓣链接 https://movie.douban.com/subject/26755583/
◎片  长 116分钟
◎导  演 约阿希姆·提尔
◎主  演 艾伦·多丽特·彼得森 Ellen Dorrit Petersen
      亨瑞克·拉斐尔森 Henrik Rafaelsen
      安德斯·莫索林 Anders Mossling
      瓦内萨·博格利 Vanessa Borgli
      Eili Harboe
      Kaya Wilkins
      Marte Magnusdotter Solem

◎简  介 

  挪威导演约阿希姆·提尔新作《西尔玛》(Thelma,暂译)正式开拍,首个外景地挑选了位于瑞典西部的西约塔兰。据提尔同伴Eskil Vogt流露,“新作是一部在挪威前所未见的电影,它展现了激烈的视觉元素。”



  1. Video
  2. ID                                       : 1
  3. Format                                   : AVC
  4. Format/Info                              : Advanced Video Codec
  5. Format profile                           : [email]High@L4.1[/email]
  6. Format settings                          : CABAC / 5 Ref Frames
  7. Format settings, CABAC                   : Yes
  8. Format settings, ReFrames                : 5 frames
  9. Codec ID                                 : V_MPEG4/ISO/AVC
  10. Duration                                 : 1 h 56 min
  11. Bit rate                                 : 9 280 kb/s
  12. Width                                    : 1 920 pixels
  13. Height                                   : 808 pixels
  14. Display aspect ratio                     : 2.40:1
  15. Frame rate mode                          : Constant
  16. Frame rate                               : 23.976 FPS
  17. Color space                              : YUV
  18. Chroma subsampling                       : 4:2:0
  19. Bit depth                                : 8 bits
  20. Scan type                                : Progressive
  21. Bits/(Pixel*Frame)                       : 0.249
  22. Stream size                              : 7.52GB (86%)
  23. Writing library                          : x264 core 152 r2851 ba24899
  24. Encoding settings                        : cabac=1 / ref=5 / deblock=1:0:0 / analyse=0x3:0x133 / me=umh / subme=7 / psy=1 / psy_rd=1.00:0.00 / mixed_ref=1 / me_range=16 / chroma_me=1 / trellis=1 / 8x8dct=1 / cqm=0 / deadzone=21,11 / fast_pskip=0 / chroma_qp_offset=-2 / threads=18 / lookahead_threads=3 / sliced_threads=0 / nr=0 / decimate=1 / interlaced=0 / bluray_compat=0 / constrained_intra=0 / bframes=3 / b_pyramid=2 / b_adapt=1 / b_bias=0 / direct=1 / weightb=1 / open_gop=0 / weightp=2 / keyint=250 / keyint_min=23 / scenecut=40 / intra_refresh=0 / rc_lookahead=40 / rc=2pass / mbtree=1 / bitrate=9280 / ratetol=1.0 / qcomp=0.60 / qpmin=0 / qpmax=69 / qpstep=4 / cplxblur=20.0 / qblur=0.5 / ip_ratio=1.40 / aq=1:1.00
  25. Language                                 : Norwegian
  26. Default                                  : Yes
  27. Forced                                   : No

  28. Audio
  29. ID                                       : 2
  30. Format                                   : DTS
  31. Format/Info                              : Digital Theater Systems
  32. Codec ID                                 : A_DTS
  33. Duration                                 : 1 h 56 min
  34. Bit rate mode                            : Constant
  35. Bit rate                                 : 1 509 kb/s
  36. Channel(s)                               : 6 channels
  37. Channel positions                        : Front: L C R, Side: L R, LFE
  38. Sampling rate                            : 48.0 kHz
  39. Frame rate                               : 93.750 FPS (512 SPF)
  40. Bit depth                                : 24 bits
  41. Compression mode                         : Lossy
  42. Stream size                              : 1.22GB (14%)
  43. Language                                 : Norwegian Bokmal
  44. Default                                  : No
  45. Forced                                   : No

  46. Text #1
  47. ID                                       : 3
  48. Format                                   : UTF-8
  49. Codec ID                                 : S_TEXT/UTF8
  50. Codec ID/Info                            : UTF-8 Plain Text
  51. Duration                                 : 1 h 46 min
  52. Bit rate                                 : 25 b/s
  53. Count of elements                        : 549
  54. Stream size                              : 20.2 KiB (0%)
  55. Language                                 : Danish
  56. Default                                  : No
  57. Forced                                   : No

  58. Text #2
  59. ID                                       : 4
  60. Format                                   : UTF-8
  61. Codec ID                                 : S_TEXT/UTF8
  62. Codec ID/Info                            : UTF-8 Plain Text
  63. Duration                                 : 1 h 46 min
  64. Bit rate                                 : 24 b/s
  65. Count of elements                        : 551
  66. Stream size                              : 18.8 KiB (0%)
  67. Language                                 : Finnish
  68. Default                                  : No
  69. Forced                                   : No

  70. Text #3
  71. ID                                       : 5
  72. Format                                   : UTF-8
  73. Codec ID                                 : S_TEXT/UTF8
  74. Codec ID/Info                            : UTF-8 Plain Text
  75. Duration                                 : 1 h 46 min
  76. Bit rate                                 : 25 b/s
  77. Count of elements                        : 537
  78. Stream size                              : 20.0 KiB (0%)
  79. Language                                 : Norwegian
  80. Default                                  : Yes
  81. Forced                                   : No



  82. Notes:
  83. English subtitles included in folder.

复制代码
复制代码
005115pcowa8i0a89o5sia.jpg 005115gg9y07ggy5j7y7z5.jpg 005116d29z33hh1zqnc265.jpg 005116gqhk44dn1mhlueee.jpg 005116rxrdqbhqfqxwrh3h.jpg 005116x6zzwsllpoxfgg6j.jpg






回复

使用道具 举报

蓝光币
1108
发表于 2019-7-19 20:23:54 | 显示全部楼层

感谢楼主的无私分享!要想蓝光电影网好 就靠你我他
回复

使用道具 举报

懒得打字嘛,点击右侧快捷回复 【右侧内容,后台自定义】
您需要登录后才可以回帖 登录 | 立即加入

本版积分规则

Archiver| |网站地图

Copyright © 2024 Comsenz Inc. Powered by 蓝光电影网

本站内容由用户自主分享和转载自互联网,转载目的在于传递更多信息,并不代表本网赞同其观点和对其真实性负责。

如有侵权、违反国家法律政策行为,请联系我们,我们会第一时间及时清除和处理!

举报反馈邮箱:4k1080.com@gmail.com

快速回复 返回顶部 返回列表