找回密码

查看: 2893|回复: 0

[剧情] 野火/塚本晋也之野火 Fires.on.the.Plain.2014.1080p.BluRay.x264-USURY 8.74GB

[复制链接]
蓝光币
1974
发表于 2017-12-20 16:52:32 | 显示全部楼层 |阅读模式
230851yxrrr5ea53t6kevt.jpg
◎译  名 野火 / 塚本晋也之野火 / Nobi / Fires On The Plain
◎片  名 野火
◎年  代 2014
◎国  家 日本
◎类  别 剧情 / 战争
◎语  言 日语 / 菲律宾语
◎上映日期 2014-09-02(威尼斯电影节) / 2015-07-25(日本)
◎IMDb评分  6.4/10 from 344 users
◎IMDb链接  http://www.imdb.com/title/tt3893038/
◎豆瓣评分 6.3/10 from 322 users
◎豆瓣链接 https://movie.douban.com/subject/25934696/
◎片  长 87分钟
◎导  演 塚本晋也
◎主  演 塚本晋也 Shinya Tsukamoto
      中川雅也 Lily Franky
      中村达也 Tatsuya Nakamura

◎简  介 

  故事按照大冈升平的同名战争文学小说改编,以第2次天下大战末期为舞台,报告了日本昔时攻打菲律宾的战争故事。经过一个普通兵士的视角,展现了二战时菲律宾疆场的残暴。



  1. Video
  2. ID                                       : 1
  3. Format                                   : AVC
  4. Format/Info                              : Advanced Video Codec
  5. Format profile                           : [email]High@L4.1[/email]
  6. Format settings                          : CABAC / 4 Ref Frames
  7. Format settings, CABAC                   : Yes
  8. Format settings, RefFrames               : 4 frames
  9. Codec ID                                 : V_MPEG4/ISO/AVC
  10. Duration                                 : 1 h 27 min
  11. Bit rate                                 : 12.8 Mb/s
  12. Width                                    : 1 920 pixels
  13. Height                                   : 1 080 pixels
  14. Display aspect ratio                     : 16:9
  15. Frame rate mode                          : Constant
  16. Frame rate                               : 23.976 (24000/1001) FPS
  17. Color space                              : YUV
  18. Chroma subsampling                       : 4:2:0
  19. Bit depth                                : 8 bits
  20. Scan type                                : Progressive
  21. Bits/(Pixel*Frame)                       : 0.258
  22. Stream size                              : 7.82GB (89%)
  23. Writing library                          : x264 core 152 r2851 ba24899
  24. Encoding settings                        : cabac=1 / ref=4 / deblock=1:-3:-3 / analyse=0x3:0x133 / me=umh / subme=9 / psy=1 / psy_rd=1.00:0.00 / mixed_ref=1 / me_range=16 / chroma_me=1 / trellis=2 / 8x8dct=1 / cqm=0 / deadzone=21,11 / fast_pskip=0 / chroma_qp_offset=-2 / threads=18 / lookahead_threads=1 / sliced_threads=0 / nr=0 / decimate=1 / interlaced=0 / bluray_compat=0 / constrained_intra=0 / bframes=3 / b_pyramid=2 / b_adapt=1 / b_bias=0 / direct=3 / weightb=1 / open_gop=0 / weightp=2 / keyint=240 / keyint_min=24 / scenecut=40 / intra_refresh=0 / rc_lookahead=50 / rc=2pass / mbtree=1 / bitrate=12830 / ratetol=1.0 / qcomp=0.60 / qpmin=0 / qpmax=69 / qpstep=4 / cplxblur=20.0 / qblur=0.5 / ip_ratio=1.40 / aq=1:1.00
  25. Language                                 : English
  26. Default                                  : Yes
  27. Forced                                   : No

  28. Audio
  29. ID                                       : 2
  30. Format                                   : DTS
  31. Format/Info                              : Digital Theater Systems
  32. Mode                                     : 16
  33. Format settings, Endianness              : Big
  34. Codec ID                                 : A_DTS
  35. Duration                                 : 1 h 27 min
  36. Bit rate mode                            : Constant
  37. Bit rate                                 : 1 509 kb/s
  38. Channel(s)                               : 6 channels
  39. Channel positions                        : Front: L C R, Side: L R, LFE
  40. Sampling rate                            : 48.0 kHz
  41. Frame rate                               : 93.750 FPS (512 SPF)
  42. Bit depth                                : 24 bits
  43. Compression mode                         : Lossy
  44. Stream size                              : 942 MiB (11%)
  45. Language                                 : Japanese
  46. Default                                  : Yes
  47. Forced                                   : No

  48. Text
  49. ID                                       : 3
  50. Format                                   : UTF-8
  51. Codec ID                                 : S_TEXT/UTF8
  52. Codec ID/Info                            : UTF-8 Plain Text
  53. Duration                                 : 1 h 26 min
  54. Bit rate                                 : 15 b/s
  55. Count of elements                        : 498
  56. Stream size                              : 9.67 KiB (0%)
  57. Title                                    : English
  58. Language                                 : English
  59. Default                                  : Yes
  60. Forced                                   : Yes

  61. Menu
  62. 00:00:00.000                             : en:00:00:00.000
  63. 00:01:52.821                             : en:00:01:52.821
  64. 00:06:04.114                             : en:00:06:04.114
  65. 00:08:28.383                             : en:00:08:28.383
  66. 00:13:07.245                             : en:00:13:07.245
  67. 00:16:56.390                             : en:00:16:56.390
  68. 00:20:54.920                             : en:00:20:54.920
  69. 00:24:19.416                             : en:00:24:19.416
  70. 00:28:19.656                             : en:00:28:19.656
  71. 00:33:40.352                             : en:00:33:40.352
  72. 00:39:39.544                             : en:00:39:39.544
  73. 00:43:43.037                             : en:00:43:43.037
  74. 00:49:58.621                             : en:00:49:58.621
  75. 00:53:19.154                             : en:00:53:19.154
  76. 00:57:32.157                             : en:00:57:32.157
  77. 01:00:02.724                             : en:01:00:02.724
  78. 01:03:33.935                             : en:01:03:33.935
  79. 01:10:50.705                             : en:01:10:50.705
  80. 01:18:49.558                             : en:01:18:49.558
  81. 01:23:51.985                             : en:01:23:51.985




复制代码
复制代码
230852stbdxkuttu4n4zye.jpg






回复

使用道具 举报

懒得打字嘛,点击右侧快捷回复 【右侧内容,后台自定义】
您需要登录后才可以回帖 登录 | 立即加入

本版积分规则

Archiver| |网站地图

Copyright © 2024 Comsenz Inc. Powered by 蓝光电影网

本站内容由用户自主分享和转载自互联网,转载目的在于传递更多信息,并不代表本网赞同其观点和对其真实性负责。

如有侵权、违反国家法律政策行为,请联系我们,我们会第一时间及时清除和处理!

举报反馈邮箱:4k1080.com@gmail.com

快速回复 返回顶部 返回列表