找回密码

查看: 3206|回复: 1

[科幻] 夺命凶灵/扫描者大决斗 Scanners.1981.1080p.BluRay.X264-AMIABLE 9.90GB

[复制链接]
蓝光币
1982
发表于 2017-12-20 16:57:40 | 显示全部楼层 |阅读模式
101744cicc7ezng4nc1xpn.jpg
◎译  名 夺命凶灵 / 扫描者大决战 / Telepathy 2000 / 扫描者
◎片  名 夺命凶灵 Scanners
◎年  代 1981
◎国  家 加拿大
◎类  别 科幻 / 可骇
◎语  言 英语
◎上映日期 1981-01-14
◎IMDb评分  6.8/10 from 39,254 users
◎IMDb链接  http://www.imdb.com/title/tt0081455/
◎豆瓣评分 7.1/10 from 1030 users
◎豆瓣链接 https://movie.douban.com/subject/1302481/
◎片  长 103 分钟
◎导  演 大卫·柯南伯格
◎主  演 詹妮弗·欧内尔 Jennifer O'Neill
      Stephen Lack
      帕特里克·麦高汉 Patrick McGoohan
      劳伦斯·戴恩 Lawrence Dane
      迈克尔·艾恩塞德 Michael Ironside

◎简  介 

  卡梅伦(斯蒂芬·莱克 Stephen Lack 饰)没有居处,没有工作,全日在陌头闲逛的他心里布满了烦闷和怒火,没有人晓得,他所具有的可以肆意操纵他人的可怕超才能。一天,在超市里游荡的卡梅伦无意之入耳到了两个女人对他的嘲笑,盛怒之下,他脱手了。这一事务将卡梅伦带到了名为保罗(帕特里克·麦高汉 Patrick McGoohan 饰)的医生眼前,就此改变了卡梅伦的人生。
  保罗医生教会了卡梅伦若何控制和有用天时用自己的超才能,很快,他就获得了卡梅伦的依靠和信赖。但是,卡梅伦并不晓得保罗医生背后究竟存在着一个怎样的构造,亦不晓得,自己已经被这个构造相中,卷入了一场庞大的诡计当中。



  1. Video
  2. ID                                       : 1
  3. Format                                   : AVC
  4. Format/Info                              : Advanced Video Codec
  5. Format profile                           : [email]High@L4.1[/email]
  6. Format settings                          : CABAC / 4 Ref Frames
  7. Format settings, CABAC                   : Yes
  8. Format settings, ReFrames                : 4 frames
  9. Codec ID                                 : V_MPEG4/ISO/AVC
  10. Duration                                 : 1 h 43 min
  11. Bit rate                                 : 13.1 Mb/s
  12. Width                                    : 1 920 pixels
  13. Height                                   : 1 080 pixels
  14. Display aspect ratio                     : 16:9
  15. Frame rate mode                          : Constant
  16. Frame rate                               : 23.976 (24000/1001) FPS
  17. Color space                              : YUV
  18. Chroma subsampling                       : 4:2:0
  19. Bit depth                                : 8 bits
  20. Scan type                                : Progressive
  21. Bits/(Pixel*Frame)                       : 0.263
  22. Stream size                              : 9.42GB (95%)
  23. Writing library                          : x264 core 142 r2453 ea0ca51
  24. Encoding settings                        : cabac=1 / ref=4 / deblock=1:-3:-3 / analyse=0x3:0x133 / me=umh / subme=9 / psy=1 / psy_rd=1.15:0.00 / mixed_ref=1 / me_range=24 / chroma_me=1 / trellis=2 / 8x8dct=1 / cqm=0 / deadzone=21,11 / fast_pskip=1 / chroma_qp_offset=-2 / threads=18 / lookahead_threads=1 / sliced_threads=0 / nr=0 / decimate=1 / interlaced=0 / bluray_compat=0 / constrained_intra=0 / bframes=3 / b_pyramid=2 / b_adapt=2 / b_bias=0 / direct=3 / weightb=1 / open_gop=0 / weightp=2 / keyint=240 / keyint_min=24 / scenecut=40 / intra_refresh=0 / rc=crf / mbtree=0 / crf=21.5 / qcomp=0.60 / qpmin=0 / qpmax=69 / qpstep=4 / ip_ratio=1.40 / pb_ratio=1.30 / aq=1:0.80
  25. Language                                 : English
  26. Default                                  : Yes
  27. Forced                                   : No

  28. Audio
  29. ID                                       : 2
  30. Format                                   : FLAC
  31. Format/Info                              : Free Lossless Audio Codec
  32. Codec ID                                 : A_FLAC
  33. Duration                                 : 1 h 43 min
  34. Bit rate mode                            : Variable
  35. Bit rate                                 : 663 kb/s
  36. Channel(s)                               : 1 channel
  37. Channel positions                        : Front: C
  38. Sampling rate                            : 48.0 kHz
  39. Frame rate                               : 11.719 FPS (4096 SPF)
  40. Bit depth                                : 24 bits
  41. Stream size                              : 489 MiB (5%)
  42. Writing library                          : libFLAC 1.2.1 (UTC 2007-09-17)
  43. Language                                 : English
  44. Default                                  : Yes
  45. Forced                                   : No

  46. Text #1
  47. ID                                       : 3
  48. Format                                   : UTF-8
  49. Codec ID                                 : S_TEXT/UTF8
  50. Codec ID/Info                            : UTF-8 Plain Text
  51. Duration                                 : 1 h 36 min
  52. Bit rate                                 : 42 b/s
  53. Count of elements                        : 1044
  54. Stream size                              : 30.0 KiB (0%)
  55. Title                                    : SDH
  56. Language                                 : English
  57. Default                                  : No
  58. Forced                                   : No

  59. Text #2
  60. ID                                       : 4
  61. Format                                   : UTF-8
  62. Codec ID                                 : S_TEXT/UTF8
  63. Codec ID/Info                            : UTF-8 Plain Text
  64. Duration                                 : 1 h 36 min
  65. Bit rate                                 : 38 b/s
  66. Count of elements                        : 923
  67. Stream size                              : 27.1 KiB (0%)
  68. Language                                 : English
  69. Default                                  : No
  70. Forced                                   : No

  71. Menu
  72. 00:00:00.000                             : en:00:00:00.000
  73. 00:05:22.948                             : en:00:05:22.948
  74. 00:10:33.258                             : en:00:10:33.258
  75. 00:22:11.789                             : en:00:22:11.789
  76. 00:29:43.949                             : en:00:29:43.949
  77. 00:35:40.597                             : en:00:35:40.597
  78. 00:45:14.086                             : en:00:45:14.086
  79. 00:58:31.717                             : en:00:58:31.717
  80. 01:05:41.271                             : en:01:05:41.271
  81. 01:17:02.660                             : en:01:17:02.660
  82. 01:28:31.473                             : en:01:28:31.473
  83. 01:37:37.143                             : en:01:37:37.143



复制代码
复制代码
101744gdq42o40qydfyaaw.jpg 101745wcbdpvvdhqcvbbvv.jpg 101745rv5nq71wqvdavzqd.jpg 101745y1rk2ms1v1aahccr.jpg 101746hh3gmqvyqar7ah2a.jpg 101746cn7iiltet63mpp77.jpg





回复

使用道具 举报

懒得打字嘛,点击右侧快捷回复 【右侧内容,后台自定义】
您需要登录后才可以回帖 登录 | 立即加入

本版积分规则

Archiver| |网站地图

Copyright © 2024 Comsenz Inc. Powered by 蓝光电影网

本站内容由用户自主分享和转载自互联网,转载目的在于传递更多信息,并不代表本网赞同其观点和对其真实性负责。

如有侵权、违反国家法律政策行为,请联系我们,我们会第一时间及时清除和处理!

举报反馈邮箱:4k1080.com@gmail.com

快速回复 返回顶部 返回列表