找回密码

查看: 3659|回复: 6

[剧情] 厨师、大盗、他的太太和她的情人.The Cook, the Thief, His Wife amp; Her Lover.1989.FR.Uk.B

[复制链接]
蓝光币
1974
发表于 2017-12-20 17:17:01 | 显示全部楼层 |阅读模式
厨师、大盗、他的太太和她的情人.The Cook, the Thief, His Wife   Her Lover.1989.FR.Uk.BluRay.1920x816p.x264.AC3-KOOK.[中英双字] 7.62GB
135243yhuslcwcpns1wceu.jpg
135244y5s4za9daf54ea9k.jpg
※※※※※※※ 影片信息 ※※※※※※※
◎片   名 The Cook, the Thief, His Wife   Her Lover
◎译   名 厨师、大盗、他的太太和她的情人 / 厨师、窃贼、他的妻子和她的情人 / 厨子、大盗、他的妻子和她的情人 / 情欲色香味
◎年   代 1989
◎国   家 法国 / 英国
◎类   别 剧情 / 情色
◎语   言 英语
◎上映日 期 1989-09-11
◎字   幕 中英双字/简体字幕/繁体字幕/英笔墨幕
◎IMDB 评分  7.6/10 from 29200 users
◎豆瓣 评分  7.6/10 from 8478 users
◎视频尺 寸  1920x816p
◎片   长 2.03.56
◎导   演 彼得·格林纳威
◎编     剧  彼得·格林纳威
◎主   演 海伦·米伦 / 迈克尔·刚本 / 理查德·波林热 / 阿兰·霍华德 / 蒂姆·罗斯

◎简  介
  艾尔伯特?斯毕卡(Michael Gambon 饰)及其爪牙巧取豪夺,无恶不作。到了早晨他便会带着妻子和徒众来到其所具有的餐厅用餐,在这里艾尔伯特仍然处于中心职位,他高谈阔论、粗俗在理,蛮横地统治者身旁的一切。妻子乔治娜(Helen Mirren 饰)对这本性能干却凶残暴力的丈夫敢怒不敢言,只得谨慎对付。
  但是几次晚宴事后,乔治娜却被旁边桌上一个举止儒雅的名流所吸引,凭仗厨师的穿针引线,她得以避过丈夫的线人和情人约会。但私情总有败事的一天……
  本片荣获1991年芝加哥电影批评协会最好外语片奖。
※※※※※※※ 参数信息 ※※※※※※※
General
Unique ID                      : 222436131207670277189618310064093613181 (0xA757A3FD17EE55DEAE415A68614D4C7D)
Format                         : Matroska
Format version                 : Version 4 / Version 2
File size                      : 7.63GB
Duration                       : 2 h 3 min
Overall bit rate               : 8 810 kb/s
Encoded date                   : UTC 2017-12-06 15:42:50
Writing application            : mkvmerge v9.4.2 ( So High ) 64bit
Writing library                : libebml v1.3.4 + libmatroska v1.4.5
Attachments                    : 蓝光.jpg
Video
ID                             : 1
Format                         : AVC
Format/Info                    : Advanced Video Codec
Format profile                 : High@L4.1
Format settings, CABAC         : Yes
Format settings, ReFrames      : 5 frames
Codec ID                       : V_MPEG4/ISO/AVC
Duration                       : 2 h 3 min
Bit rate                       : 8 622 kb/s
Width                          : 1 920 pixels
Height                         : 816 pixels
Display aspect ratio           : 2.35:1
Frame rate mode                : Constant
Frame rate                     : 23.976 (23976/1000) FPS
Original frame rate            : 24.000 FPS
Color space                    : YUV
Chroma subsampling             : 4:2:0
Bit depth                      : 8 bits
Scan type                      : Progressive
Bits/(Pixel*Frame)             : 0.230
Stream size                    : 7.46GB (98%)
Title                          : kook
Writing library                : x264 core 135 r2345 f0c1c53
Encoding settings              : cabac=1 / ref=5 / deblock=1:-3:-3 / analyse=0x3:0x113 / me=umh / subme=8 / psy=1 / psy_rd=1.00:0.00 / mixed_ref=1 / me_range=16 / chroma_me=1 / trellis=1 / 8x8dct=1 / cqm=0 / deadzone=21,11 / fast_pskip=1 / chroma_qp_offset=-2 / threads=12 / lookahead_threads=2 / sliced_threads=0 / nr=0 / decimate=1 / interlaced=0 / bluray_compat=0 / constrained_intra=0 / bframes=3 / b_pyramid=2 / b_adapt=2 / b_bias=0 / direct=3 / weightb=1 / open_gop=0 / weightp=2 / keyint=240 / keyint_min=24 / scenecut=40 / intra_refresh=0 / rc_lookahead=50 / rc=2pass / mbtree=1 / bitrate=8622 / ratetol=1.0 / qcomp=0.60 / qpmin=0 / qpmax=69 / qpstep=4 / cplxblur=20.0 / qblur=0.5 / ip_ratio=1.40 / aq=1:1.00
Language                       : English
Default                        : Yes
Forced                         : No
Audio
ID                             : 2
Format                         : AC-3
Format/Info                    : Audio Coding 3
Mode extension                 : CM (complete main)
Format settings, Endianness    : Big
Codec ID                       : A_AC3
Duration                       : 2 h 3 min
Bit rate mode                  : Constant
Bit rate                       : 192 kb/s
Channel(s)                     : 2 channels
Channel positions              : Front: L R
Sampling rate                  : 48.0 kHz
Frame rate                     : 31.250 FPS (1536 spf)
Compression mode               : Lossy
Stream size                    : 170 MiB (2%)
Language                       : English
Default                        : Yes
Forced                         : No
Text #1
ID                             : 3
Format                         : ASS
Codec ID                       : S_TEXT/ASS
Codec ID/Info                  : Advanced Sub Station Alpha
Duration                       : 2 h 0 min
Bit rate                       : 207 b/s
Count of elements              : 1476
Compression mode               : Lossless
Stream size                    : 184 KiB (0%)
Title                          : 中英字幕
Language                       : Chinese
Default                        : Yes
Forced                         : No
Text #2
ID                             : 4
Format                         : ASS
Codec ID                       : S_TEXT/ASS
Codec ID/Info                  : Advanced Sub Station Alpha
Duration                       : 2 h 0 min
Bit rate                       : 108 b/s
Count of elements              : 1476
Compression mode               : Lossless
Stream size                    : 95.8 KiB (0%)
Title                          : 简体字幕
Language                       : Chinese
Default                        : No
Forced                         : No
Text #3
ID                             : 5
Format                         : ASS
Codec ID                       : S_TEXT/ASS
Codec ID/Info                  : Advanced Sub Station Alpha
Duration                       : 2 h 0 min
Bit rate                       : 108 b/s
Count of elements              : 1476
Compression mode               : Lossless
Stream size                    : 95.8 KiB (0%)
Title                          : 繁体字幕
Language                       : Chinese
Default                        : No
Forced                         : No
Text #4
ID                             : 6
Format                         : ASS
Codec ID                       : S_TEXT/ASS
Codec ID/Info                  : Advanced Sub Station Alpha
Duration                       : 2 h 0 min
Bit rate                       : 162 b/s
Count of elements              : 1467
Compression mode               : Lossless
Stream size                    : 144 KiB (0%)
Title                          : 英笔墨幕
Language                       : English
Default                        : No
Forced                         : No
Menu
00:00:00.000                   : en:00:00:00.000
00:10:39.667                   : en:00:10:39.667
00:23:22.500                   : en:00:23:22.500
00:36:30.750                   : en:00:36:30.750
00:51:09.708                   : en:00:51:09.708
01:00:08.542                   : en:01:00:08.542
01:11:00.458                   : en:01:11:00.458
01:21:39.583                   : en:01:21:39.583
01:33:32.125                   : en:01:33:32.125
01:42:54.958                   : en:01:42:54.958
01:52:11.167                   : en:01:52:11.167
02:01:06.708                   : en:02:01:06.708
135245v4crcv4q4m66uyk6.jpg





回复

使用道具 举报

懒得打字嘛,点击右侧快捷回复 【右侧内容,后台自定义】
您需要登录后才可以回帖 登录 | 立即加入

本版积分规则

Archiver| |网站地图

Copyright © 2024 Comsenz Inc. Powered by 蓝光电影网

本站内容由用户自主分享和转载自互联网,转载目的在于传递更多信息,并不代表本网赞同其观点和对其真实性负责。

如有侵权、违反国家法律政策行为,请联系我们,我们会第一时间及时清除和处理!

举报反馈邮箱:4k1080.com@gmail.com

快速回复 返回顶部 返回列表