找回密码

查看: 2989|回复: 2

[动画] 虐杀器官[粤日双语/内封中字] Genocidal.Organ.2017.1080p.BluRay.x264.DTS-WiKi 9.74GB

[复制链接]
蓝光币
1984
发表于 2017-12-20 17:21:23 | 显示全部楼层 |阅读模式
122555qrc9srrjfrn6s66c.jpg
◎译  名 虐杀器官 / Genocidal Organ
◎片  名 虐杀器官 虐殺器官
◎年  代 2017
◎国  家 日本
◎类  别 科幻 / 动画
◎语  言 日语
◎上映日期 2017-02-03(日本)
◎IMDb评分  6.6/10 from 156 users
◎IMDb链接  http://www.imdb.com/title/tt3615160/
◎豆瓣评分 7.1/10 from 1546 users
◎豆瓣链接 https://movie.douban.com/subject/25850715/
◎片  长 115分钟
◎导  演 村濑修功
◎主  演 中村悠一 Yuuichi Nakamura
      三上哲 Satoshi Mikami
      梶裕贵 Y?ki Kaji
      石川界人 Kaito Ishikawa
      大塚明夫 Akio ?tsuka
      小林沙苗 Sanae Kobayashi
      樱井孝宏 Takahiro Sakurai

◎简  介 

  《屠杀器官》的舞台将设定在赛拉耶佛核爆后的地球,此时部分落后国家爆发了连续串内战及民族抵触,在这血腥风暴当中,美国特别情报军队「克拉维斯(クラヴィス)」发现了在阴影之下有一位叫「约翰·保罗(ジョン?ポール)」的美国人介入其中,约翰途经之处一定掀起腥风血雨,这让众人疯狂的 「屠杀器官」究竟是什么?
  戏院版动画《屠杀器官》按照早逝的天赋科幻小说作家伊藤计划的同名小说改编,由富士电视台的noitaminA节目企划,manglobe建造,将于2015年10月上映。



  1. Video
  2. ID                                       : 1
  3. Format                                   : AVC
  4. Format/Info                              : Advanced Video Codec
  5. Format profile                           : [email]High@L4.1[/email]
  6. Format settings                          : CABAC / 4 Ref Frames
  7. Format settings, CABAC                   : Yes
  8. Format settings, ReFrames                : 4 frames
  9. Codec ID                                 : V_MPEG4/ISO/AVC
  10. Duration                                 : 1 h 54 min
  11. Bit rate                                 : 10.3 Mb/s
  12. Width                                    : 1 920 pixels
  13. Height                                   : 1 080 pixels
  14. Display aspect ratio                     : 16:9
  15. Frame rate mode                          : Constant
  16. Frame rate                               : 23.976 (24000/1001) FPS
  17. Color space                              : YUV
  18. Chroma subsampling                       : 4:2:0
  19. Bit depth                                : 8 bits
  20. Scan type                                : Progressive
  21. Bits/(Pixel*Frame)                       : 0.207
  22. Stream size                              : 8.23GB (84%)
  23. Writing library                          : x264 core 129 r2245+704+36 8e61944 tMod+MixAQ [8-bit@4:2:0 X86_64]
  24. Encoding settings                        : cabac=1 / ref=4 / deblock=1:-1:-1 / analyse=0x3:0x133 / me=umh / subme=11 / psy=1 / fade_compensate=0.00 / psy_rd=1.05:0.10 / mixed_ref=1 / me_range=64 / chroma_me=1 / trellis=2 / 8x8dct=1 / cqm=0 / deadzone=21,11 / fast_pskip=0 / chroma_qp_offset=-3 / threads=18 / lookahead_threads=3 / sliced_threads=0 / nr=0 / decimate=0 / interlaced=0 / bluray_compat=0 / constrained_intra=0 / fgo=0 / bframes=10 / b_pyramid=2 / b_adapt=2 / b_bias=0 / direct=3 / weightb=1 / open_gop=0 / weightp=2 / keyint=250 / keyint_min=23 / scenecut=40 / intra_refresh=0 / rc=2pass / mbtree=0 / bitrate=10288 / ratetol=1.0 / qcomp=0.70 / qpmin=0 / qpmax=69 / qpstep=4 / cplxblur=20.0 / qblur=0.5 / ip_ratio=1.40 / pb_ratio=1.30 / aq=1 / aq-strength=0.95 / aq-sensitivity=10.00 / aq-ifactor=1.00 / aq-pfactor=1.00 / aq-bfactor=1.00 / aq2=0
  25. Language                                 : Japanese
  26. Default                                  : Yes
  27. Forced                                   : No

  28. Audio #1
  29. ID                                       : 2
  30. Format                                   : DTS
  31. Format/Info                              : Digital Theater Systems
  32. Codec ID                                 : A_DTS
  33. Duration                                 : 1 h 54 min
  34. Bit rate mode                            : Constant
  35. Bit rate                                 : 1 509 kb/s
  36. Channel(s)                               : 6 channels
  37. Channel positions                        : Front: L C R, Side: L R, LFE
  38. Sampling rate                            : 48.0 kHz
  39. Frame rate                               : 93.750 FPS (512 SPF)
  40. Bit depth                                : 24 bits
  41. Compression mode                         : Lossy
  42. Stream size                              : 1.21GB (12%)
  43. Language                                 : Japanese
  44. Default                                  : Yes
  45. Forced                                   : No

  46. Audio #2
  47. ID                                       : 3
  48. Format                                   : AC-3
  49. Format/Info                              : Audio Coding 3
  50. Codec ID                                 : A_AC3
  51. Duration                                 : 1 h 54 min
  52. Bit rate mode                            : Constant
  53. Bit rate                                 : 384 kb/s
  54. Channel(s)                               : 2 channels
  55. Channel positions                        : Front: L R
  56. Sampling rate                            : 48.0 kHz
  57. Frame rate                               : 31.250 FPS (1536 SPF)
  58. Bit depth                                : 16 bits
  59. Compression mode                         : Lossy
  60. Stream size                              : 315 MiB (3%)
  61. Language                                 : Chinese
  62. Service kind                             : Complete Main
  63. Default                                  : No
  64. Forced                                   : No

  65. Text #1
  66. ID                                       : 4
  67. Format                                   : UTF-8
  68. Codec ID                                 : S_TEXT/UTF8
  69. Codec ID/Info                            : UTF-8 Plain Text
  70. Duration                                 : 1 h 48 min
  71. Bit rate                                 : 51 b/s
  72. Count of elements                        : 1216
  73. Stream size                              : 40.9 KiB (0%)
  74. Title                                    : Simplified
  75. Language                                 : Chinese
  76. Default                                  : Yes
  77. Forced                                   : No

  78. Text #2
  79. ID                                       : 5
  80. Format                                   : UTF-8
  81. Codec ID                                 : S_TEXT/UTF8
  82. Codec ID/Info                            : UTF-8 Plain Text
  83. Duration                                 : 1 h 48 min
  84. Bit rate                                 : 51 b/s
  85. Count of elements                        : 1216
  86. Stream size                              : 40.9 KiB (0%)
  87. Title                                    : Traditional
  88. Language                                 : Chinese
  89. Default                                  : No
  90. Forced                                   : No

  91. Menu
  92. 00:00:00.000                             : en:00:00:00.000
  93. 00:02:13.049                             : en:00:02:13.049
  94. 00:16:27.945                             : en:00:16:27.945
  95. 00:19:00.556                             : en:00:19:00.556
  96. 00:21:27.786                             : en:00:21:27.786
  97. 00:28:02.180                             : en:00:28:02.180
  98. 00:29:48.536                             : en:00:29:48.536
  99. 00:37:28.913                             : en:00:37:28.913
  100. 00:42:08.984                             : en:00:42:08.984
  101. 00:44:07.436                             : en:00:44:07.436
  102. 00:48:42.711                             : en:00:48:42.711
  103. 00:53:14.232                             : en:00:53:14.232
  104. 00:57:21.187                             : en:00:57:21.187
  105. 01:01:45.326                             : en:01:01:45.326
  106. 01:05:24.295                             : en:01:05:24.295
  107. 01:16:28.625                             : en:01:16:28.625
  108. 01:21:16.246                             : en:01:21:16.246
  109. 01:27:24.405                             : en:01:27:24.405
  110. 01:30:40.101                             : en:01:30:40.101
  111. 01:42:55.252                             : en:01:42:55.252
  112. 01:49:20.387                             : en:01:49:20.387



复制代码
复制代码
122555o7dcn9u2t7uuaow9.jpg 122556lz4qvja7ia7a9kg6.jpg 122556l94w5q1yt5vq4vtt.jpg 122556rlmxsx1n5ll5blr3.jpg 122556p5fgf3gfhtzhuf3g.jpg 122557r6q5r68lbwo76w57.jpg






回复

使用道具 举报

懒得打字嘛,点击右侧快捷回复 【右侧内容,后台自定义】
您需要登录后才可以回帖 登录 | 立即加入

本版积分规则

Archiver| |网站地图

Copyright © 2024 Comsenz Inc. Powered by 蓝光电影网

本站内容由用户自主分享和转载自互联网,转载目的在于传递更多信息,并不代表本网赞同其观点和对其真实性负责。

如有侵权、违反国家法律政策行为,请联系我们,我们会第一时间及时清除和处理!

举报反馈邮箱:4k1080.com@gmail.com

快速回复 返回顶部 返回列表