找回密码

查看: 9888|回复: 6

[爱情] 贝多芬小姐的启蒙.The Opening of Misty Beethoven.1976.US.BluRay.1920x1036p.x264.DTS

[复制链接]
蓝光币
1992
发表于 2017-12-20 17:24:28 | 显示全部楼层 |阅读模式
很多影评人推重为影史上最好的色情电影.
贝多芬蜜斯的启蒙.The Opening of Misty Beethoven.1976.US.BluRay.1920x1036p.x264.DTS-KOOk.[中英双字] 10.8GB
220021duojr4mqsds4mmzo.jpg
220023mniifgn77onnlin5.jpg
※※※※※※※ 影片信息 ※※※※※※※
◎片   名 The Opening of Misty Beethoven
◎译   名 贝多芬蜜斯的启蒙
◎年   代 1976
◎国   家 美国
◎类   别 笑剧 / 恋爱 / Adult
◎语   言 英语
◎上映日 期 1976-03
◎字   幕 中英双字/简体字幕/繁体字幕/英笔墨幕
◎IMDB 评分  7.1/10 from 1058 users
◎豆瓣 评分  6.7/10 from 824 users
◎视频尺 寸  1920x1036p
◎片   长 1.24.43
◎导   演 拉德利·梅茨格
◎编     剧  拉德利·梅茨格
◎主   演 康斯妲丝·茉莉 / 杰米·吉祥斯

◎简  介
  此片已经荣获第一届色情片影展(Erotic Film Festival)的最好影片,被很多影评人推重为影史上最好的色情电影。
  虽然支流观众争睹色情电影的高潮已经衰退,但还是有一些导演对峙继续拍摄高质量的色情电影,拉德雷梅杰(Radley Metzger)在1975年导演的《贝多芬蜜斯的启蒙》(The Opening of Misty Beethoven)就是最好的例子。此片改编自萧伯纳的名剧「卖花女」(Pygmalion),也可以说是好莱坞电影《窈窕淑女》(My Fair Lady)的色情变奏版。片中的贝多芬蜜斯原本是一个轻佻肮脏的陌头妓女,常日都在巴黎成人戏院帮男客手淫,但当她碰到某位性学博士今后,却被革新成为气质文雅的交际圈名媛,而且在色情杂志出书商的年度盛大舞会中艳压群芳。
※※※※※※※ 参数信息 ※※※※※※※
General
Unique ID                      : 203309859214797720460848368477032114928 (0x98F40DF949E63253869A927466D36AF0)
Format                         : Matroska
Format version                 : Version 4 / Version 2
File size                      : 10.9GB
Duration                       : 1 h 24 min
Overall bit rate               : 18.4 Mb/s
Encoded date                   : UTC 2017-12-09 15:11:47
Writing application            : mkvmerge v9.4.2 ( So High ) 64bit
Writing library                : libebml v1.3.4 + libmatroska v1.4.5
Attachments                    : 正式海报.jpg
Video
ID                             : 1
Format                         : AVC
Format/Info                    : Advanced Video Codec
Format profile                 : High@L4.1
Format settings, CABAC         : Yes
Format settings, ReFrames      : 4 frames
Codec ID                       : V_MPEG4/ISO/AVC
Duration                       : 1 h 24 min
Bit rate                       : 16.9 Mb/s
Width                          : 1 920 pixels
Height                         : 1 036 pixels
Display aspect ratio           : 1.85:1
Frame rate mode                : Constant
Frame rate                     : 23.976 FPS
Color space                    : YUV
Chroma subsampling             : 4:2:0
Bit depth                      : 8 bits
Scan type                      : Progressive
Bits/(Pixel*Frame)             : 0.354
Stream size                    : 10.00GB (92%)
Title                          : kook
Writing library                : x264 core 128 r2216 198a7ea
Encoding settings              : cabac=1 / ref=4 / deblock=1:-3:-3 / analyse=0x3:0x113 / me=umh / subme=10 / psy=1 / psy_rd=1.05:0.10 / mixed_ref=1 / me_range=48 / chroma_me=1 / trellis=2 / 8x8dct=1 / cqm=0 / deadzone=21,11 / fast_pskip=0 / chroma_qp_offset=-2 / threads=12 / lookahead_threads=2 / sliced_threads=0 / nr=0 / decimate=1 / interlaced=0 / bluray_compat=0 / constrained_intra=0 / bframes=6 / b_pyramid=2 / b_adapt=2 / b_bias=0 / direct=3 / weightb=1 / open_gop=0 / weightp=2 / keyint=250 / keyint_min=23 / scenecut=40 / intra_refresh=0 / rc_lookahead=40 / rc=2pass / mbtree=0 / bitrate=16890 / ratetol=2.0 / qcomp=0.70 / qpmin=0 / qpmax=69 / qpstep=4 / cplxblur=20.0 / qblur=0.5 / vbv_maxrate=40000 / vbv_bufsize=30000 / nal_hrd=none / ip_ratio=1.40 / pb_ratio=1.30 / aq=2:1.00
Language                       : English
Default                        : Yes
Forced                         : No
Audio
ID                             : 2
Format                         : DTS
Format/Info                    : Digital Theater Systems
Mode                           : 16
Format settings, Endianness    : Big
Codec ID                       : A_DTS
Duration                       : 1 h 24 min
Bit rate mode                  : Constant
Bit rate                       : 1 509 kb/s
Channel(s)                     : 6 channels
Channel positions              : Front: L C R, Side: L R, LFE
Sampling rate                  : 48.0 kHz
Frame rate                     : 93.750 FPS (512 spf)
Bit depth                      : 24 bits
Compression mode               : Lossy
Stream size                    : 914 MiB (8%)
Title                          : English DTS-HDMA CORE 5.1CH @ 1509 kbps
Language                       : English
Default                        : Yes
Forced                         : No
Text #1
ID                             : 3
Format                         : ASS
Codec ID                       : S_TEXT/ASS
Codec ID/Info                  : Advanced Sub Station Alpha
Duration                       : 1 h 24 min
Bit rate                       : 135 b/s
Count of elements              : 624
Compression mode               : Lossless
Stream size                    : 83.7 KiB (0%)
Title                          : 中英字幕
Language                       : Chinese
Default                        : Yes
Forced                         : No
Text #2
ID                             : 4
Format                         : ASS
Codec ID                       : S_TEXT/ASS
Codec ID/Info                  : Advanced Sub Station Alpha
Duration                       : 1 h 24 min
Bit rate                       : 67 b/s
Count of elements              : 624
Compression mode               : Lossless
Stream size                    : 42.1 KiB (0%)
Title                          : 简体字幕
Language                       : Chinese
Default                        : No
Forced                         : No
Text #3
ID                             : 5
Format                         : ASS
Codec ID                       : S_TEXT/ASS
Codec ID/Info                  : Advanced Sub Station Alpha
Duration                       : 1 h 24 min
Bit rate                       : 67 b/s
Count of elements              : 624
Compression mode               : Lossless
Stream size                    : 42.1 KiB (0%)
Title                          : 繁体字幕
Language                       : Chinese
Default                        : No
Forced                         : No
Text #4
ID                             : 6
Format                         : ASS
Codec ID                       : S_TEXT/ASS
Codec ID/Info                  : Advanced Sub Station Alpha
Duration                       : 1 h 24 min
Bit rate                       : 89 b/s
Count of elements              : 624
Compression mode               : Lossless
Stream size                    : 55.2 KiB (0%)
Title                          : 英笔墨幕
Language                       : English
Default                        : No
Forced                         : No






回复

使用道具 举报

蓝光币
103
发表于 2020-8-21 15:21:57 | 显示全部楼层

感谢楼主的无私分享!要想蓝光电影网好 就靠你我他
回复

使用道具 举报

蓝光币
103
发表于 2020-12-4 14:02:32 | 显示全部楼层

这东西我收了!谢谢楼主!蓝光电影网真好!
回复

使用道具 举报

蓝光币
103
发表于 2020-12-31 10:44:50 | 显示全部楼层

这东西我收了!谢谢楼主!蓝光电影网真好!
回复

使用道具 举报

蓝光币
2612
发表于 2021-1-23 16:41:34 | 显示全部楼层
要感谢楼主啦!
回复

使用道具 举报

蓝光币
0
发表于 2022-7-28 13:21:09 | 显示全部楼层
这东西我收了!谢谢楼主!蓝光电影网真好
回复

使用道具 举报

蓝光币
41
发表于 2022-8-3 23:15:57 | 显示全部楼层
谢谢楼主的分享
回复

使用道具 举报

懒得打字嘛,点击右侧快捷回复 【右侧内容,后台自定义】
您需要登录后才可以回帖 登录 | 立即加入

本版积分规则

Archiver| |网站地图

Copyright © 2024 Comsenz Inc. Powered by 蓝光电影网

本站内容由用户自主分享和转载自互联网,转载目的在于传递更多信息,并不代表本网赞同其观点和对其真实性负责。

如有侵权、违反国家法律政策行为,请联系我们,我们会第一时间及时清除和处理!

举报反馈邮箱:4k1080.com@gmail.com

快速回复 返回顶部 返回列表