找回密码

查看: 26422|回复: 4

[爱情] 爱恋.Love.2015.FR.LIMITED.BluRay.1920x808p.x264.DTS-KOOK.[中英双字] 9.02GB

[复制链接]
蓝光币
1982
发表于 2017-12-20 17:24:57 | 显示全部楼层 |阅读模式
爱恋.Love.2015.FR.LIMITED.BluRay.1920x808p.x264.DTS-KOOK.[中英双字] 9.02GB
220054qxkxz1vp886c90z6.jpg
※※※※※※※ 影片信息 ※※※※※※※
◎片   名 Love
◎译   名 爱恋 / 性本爱 / 劲凹3D / 爱恋3D
◎年   代 2015
◎国   家 法国 / 比利时
◎类   别 剧情 / 恋爱 / 情色
◎语   言 英语
◎上映日 期 2015-05-20(戛纳电影节) / 2015-07-15(法国)
◎字   幕 中英双字/简体字幕/繁体字幕/英笔墨幕
◎IMDB 评分  6.0/10 from 26935 users
◎豆瓣 评分  6.5/10 from 12036 users
◎视频尺 寸  1920x808p
◎片   长 2.09.22
◎导   演 加斯帕·诺
◎编     剧  加斯帕·诺
◎主   演 卡尔·格洛斯曼 / 黛博拉·海薇 / 奥米·穆尤克 / 克拉拉·克里斯汀 / 贝努瓦·戴比

◎简  介
   曾携手莫妮卡·贝鲁奇和文森特·卡索以电影《不成撤消》颤动戛纳的导演加斯帕·诺携新作《爱恋3D》重返戛纳,影片聚焦一男两女的情欲恋爱,新人男主卡尔·格洛斯曼单挑大梁,让影片备受关注。影片入围第68届戛纳电影节半夜展映单元和酷儿棕榈单元。
    幕后花絮
    电影的男主演卡尔·格鲁斯曼在为第一组镜头做预备前,有一种逃离片场立即坐飞机回美国的感动,但他终极也习惯了最少六个工作职员在片场盯着自己。[4]  。
   女主演卡拉·克里斯汀是被导演在夜店中挖掘,该片的拍摄让她对袒露的态度发生了庞大的变化,畴前面临自己的母亲都不太愿意袒露自己的身材,但现在她感觉作为人类,袒露也很自然。[4]  。
    影片拍摄进程中,天天都有20个小时在拍摄进程[4]  。
    电影一路头出现一行字幕:“戏院提醒你把3D眼镜戴上”,而现实上这句话是导演本人加在影片开首的,和戏院没关系[1]  。
   女配角的前男友叫诺埃,而且是由加斯帕·诺本人饰演的
※※※※※※※ 参数信息 ※※※※※※※
General
Unique ID                      : 208094262659714712101826307322337268167 (0x9C8D7F469BD17314B2A8D94BB0AB91C7)
Format                         : Matroska
Format version                 : Version 4 / Version 2
File size                      : 9.03GB
Duration                       : 2 h 9 min
Overall bit rate               : 9 990 kb/s
Movie name                     : RARBG.COM - Love.2015.1080p.BluRay.x264.DTS-HD.MA.5.1-RARBG
Encoded date                   : UTC 2017-12-08 12:48:39
Writing application            : mkvmerge v9.4.2 ( So High ) 64bit
Writing library                : libebml v1.3.4 + libmatroska v1.4.5
Attachments                    : 正式海报 法国1.jpg
Video
ID                             : 1
Format                         : AVC
Format/Info                    : Advanced Video Codec
Format profile                 : High@L4.1
Format settings, CABAC         : Yes
Format settings, ReFrames      : 5 frames
Codec ID                       : V_MPEG4/ISO/AVC
Duration                       : 2 h 9 min
Bit rate                       : 8 167 kb/s
Width                          : 1 920 pixels
Height                         : 808 pixels
Display aspect ratio           : 2.40:1
Frame rate mode                : Constant
Frame rate                     : 25.000 FPS
Color space                    : YUV
Chroma subsampling             : 4:2:0
Bit depth                      : 8 bits
Scan type                      : Progressive
Bits/(Pixel*Frame)             : 0.211
Stream size                    : 7.38GB (82%)
Title                          : kook
Writing library                : x264 core 148 r2638 7599210
Encoding settings              : cabac=1 / ref=5 / deblock=1:-3:-3 / analyse=0x3:0x113 / me=umh / subme=8 / psy=1 / psy_rd=1.00:0.00 / mixed_ref=1 / me_range=16 / chroma_me=1 / trellis=1 / 8x8dct=1 / cqm=0 / deadzone=21,11 / fast_pskip=1 / chroma_qp_offset=-2 / threads=18 / lookahead_threads=3 / sliced_threads=0 / nr=0 / decimate=1 / interlaced=0 / bluray_compat=0 / constrained_intra=0 / bframes=3 / b_pyramid=2 / b_adapt=2 / b_bias=0 / direct=3 / weightb=1 / open_gop=0 / weightp=2 / keyint=250 / keyint_min=25 / scenecut=40 / intra_refresh=0 / rc_lookahead=50 / rc=2pass / mbtree=1 / bitrate=8167 / ratetol=1.0 / qcomp=0.60 / qpmin=0 / qpmax=69 / qpstep=4 / cplxblur=20.0 / qblur=0.5 / ip_ratio=1.40 / aq=3:0.80
Language                       : English
Default                        : Yes
Forced                         : No
Audio
ID                             : 2
Format                         : DTS
Format/Info                    : Digital Theater Systems
Format profile                 : MA / Core
Mode                           : 16
Format settings, Endianness    : Big
Codec ID                       : A_DTS
Duration                       : 2 h 9 min
Bit rate mode                  : Variable / Constant
Bit rate                       : 1 823 kb/s / 1 509 kb/s
Channel(s)                     : 6 channels
Channel positions              : Front: L C R, Side: L R, LFE
Sampling rate                  : 48.0 kHz
Frame rate                     : 93.750 FPS (512 spf)
Bit depth                      : 16 bits
Compression mode               : Lossless / Lossy
Stream size                    : 1.65GB (18%)
Title                          : kook
Language                       : English
Default                        : Yes
Forced                         : No
Text #1
ID                             : 3
Format                         : ASS
Codec ID                       : S_TEXT/ASS
Codec ID/Info                  : Advanced Sub Station Alpha
Duration                       : 2 h 6 min
Bit rate                       : 140 b/s
Count of elements              : 1176
Compression mode               : Lossless
Stream size                    : 130 KiB (0%)
Title                          : 中英字幕
Language                       : Chinese
Default                        : Yes
Forced                         : No
Text #2
ID                             : 4
Format                         : ASS
Codec ID                       : S_TEXT/ASS
Codec ID/Info                  : Advanced Sub Station Alpha
Duration                       : 2 h 6 min
Bit rate                       : 71 b/s
Count of elements              : 1176
Compression mode               : Lossless
Stream size                    : 66.2 KiB (0%)
Title                          : 简体字幕
Language                       : Chinese
Default                        : No
Forced                         : No
Text #3
ID                             : 5
Format                         : ASS
Codec ID                       : S_TEXT/ASS
Codec ID/Info                  : Advanced Sub Station Alpha
Duration                       : 2 h 6 min
Bit rate                       : 71 b/s
Count of elements              : 1176
Compression mode               : Lossless
Stream size                    : 66.2 KiB (0%)
Title                          : 繁体字幕
Language                       : Chinese
Default                        : No
Forced                         : No
Text #4
ID                             : 6
Format                         : ASS
Codec ID                       : S_TEXT/ASS
Codec ID/Info                  : Advanced Sub Station Alpha
Duration                       : 2 h 6 min
Bit rate                       : 101 b/s
Count of elements              : 1176
Compression mode               : Lossless
Stream size                    : 94.3 KiB (0%)
Title                          : 英笔墨幕
Language                       : English
Default                        : No
Forced                         : No
Menu
00:00:00.000                   : en:00:00:00.000
00:07:37.000                   : en:00:07:37.000
00:23:08.640                   : en:00:23:08.640
00:46:10.240                   : en:00:46:10.240
01:09:00.640                   : en:01:09:00.640
01:29:58.040                   : en:01:29:58.040
01:48:43.720                   : en:01:48:43.720
02:04:42.160                   : en:02:04:42.160
220055siz3lzlqqmq3qhhf.jpg





回复

使用道具 举报

蓝光币
508
发表于 2018-1-7 13:36:22 | 显示全部楼层
不错不错 谢谢分享
回复

使用道具 举报

蓝光币
103
发表于 2020-8-21 15:46:04 | 显示全部楼层
谢谢分享 这个接吻很有烟火味
回复

使用道具 举报

蓝光币
2607
发表于 2021-1-22 14:13:40 | 显示全部楼层
谢谢楼主分享!
回复

使用道具 举报

蓝光币
27
发表于 2022-5-31 19:48:00 | 显示全部楼层
感谢分享
回复

使用道具 举报

懒得打字嘛,点击右侧快捷回复 【右侧内容,后台自定义】
您需要登录后才可以回帖 登录 | 立即加入

本版积分规则

Archiver| |网站地图

Copyright © 2024 Comsenz Inc. Powered by 蓝光电影网

本站内容由用户自主分享和转载自互联网,转载目的在于传递更多信息,并不代表本网赞同其观点和对其真实性负责。

如有侵权、违反国家法律政策行为,请联系我们,我们会第一时间及时清除和处理!

举报反馈邮箱:4k1080.com@gmail.com

快速回复 返回顶部 返回列表