找回密码

查看: 9570|回复: 2

[科幻] 猩球崛起3:终极之战/猩球崛起:终极决战 War.for.the.Planet.of.the.Apes.2017.1080p.BluRay.x264.TrueHD.7.1.Atmos-SWTYBLZ 15.34GB

[复制链接]
蓝光币
1992
发表于 2017-12-20 17:40:35 | 显示全部楼层 |阅读模式
064858s3o4o5o67t6no5z4.jpg
◎译  名 猩球突起3:终极之战 / 猩球突起:终极决战 / 猿人争霸战:猩凶巨战 / 猩球大战:猿力醒觉(豆友译名) / 猩球突起3 / 人猿猩球3 / Planet of the Apes 3
◎片  名 猩球突起3:终极之战 War for the Planet of the Apes
◎年  代 2017
◎国  家 美国
◎类  别 剧情 / 行动 / 科幻
◎语  言 英语 / 美国手语
◎上映日期 2017-09-15(中国大陆) / 2017-07-14(美国)
◎IMDb评分  7.5/10 from 134,438 users
◎IMDb链接  http://www.imdb.com/title/tt3450958/
◎豆瓣评分 6.9/10 from 105945 users
◎豆瓣链接 https://movie.douban.com/subject/25808075/
◎片  长 140分钟
◎导  演 马特·里夫斯
◎主  演 安迪·瑟金斯 Andy Serkis
      伍迪·哈里森 Woody Harrelson
      史蒂夫·茨恩 Steve Zahn
      卡琳·考诺娃 Karin Konoval
      阿米尔·米勒 Amiah Miller
      泰瑞·诺塔里 Terry Notary
      泰·奥尔森 Ty Olsson
      迈克尔·亚当思韦特 Michael Adamthwaite
      托比·凯贝尔 Toby Kebbell
      加布里埃尔·查瓦里亚 Gabriel Chavarria
      朱迪·格雷尔 Judy Greer
      莎拉·坎宁 Sara Canning
      德文·达尔顿 Devyn Dalton
      阿莱克斯·潘诺维奇 Aleks Paunovic
      亚历桑德罗·朱利安尼 Alessandro Juliani
      马克斯·洛伊德-琼斯 Max Lloyd-Jones
      蒂莫西·韦伯 Timothy Webber

◎简  介 

  凯撒(安迪·瑟金斯 饰)带领的猿族将被迫与残暴的Colonel(伍迪·哈里森 饰)带领的人类军队上演一场生死大战。猿族在战役中遭受了史无前例的重创,由此激起了凯撒心里中黑暗的一面,心中燃起复仇的猛火。终极,凯撒与Colonel面临面停止了一场关乎猿族和人类命运的终极之战。

◎获奖情况 

  第45届动画安妮奖 (2018)
  最好真人电影动画脚色(提名)

  第23届美国批评家挑选电影奖 (2018)
  最好视觉结果(提名)
  最好行动片(提名)

  第22届金卫星奖 (2018)
  电影部分 最好原创配乐(提名) 迈克·吉亚奇诺
  电影部分 最好视觉结果(提名)
  电影部分 最好剪辑(提名) 威廉·霍伊
  电影部分 最好音效(提名)

  第16届华盛顿影评人协会奖 (2017)
  最好行动捕捉表演 安迪·瑟金斯



  1. Video
  2. ID                                       : 1
  3. Format                                   : AVC
  4. Format/Info                              : Advanced Video Codec
  5. Format profile                           : [email]High@L4.1[/email]
  6. Format settings                          : CABAC / 5 Ref Frames
  7. Format settings, CABAC                   : Yes
  8. Format settings, ReFrames                : 5 frames
  9. Codec ID                                 : V_MPEG4/ISO/AVC
  10. Duration                                 : 2 h 20 min
  11. Bit rate                                 : 9 647 kb/s
  12. Width                                    : 1 920 pixels
  13. Height                                   : 800 pixels
  14. Display aspect ratio                     : 2.40:1
  15. Frame rate mode                          : Constant
  16. Frame rate                               : 23.976 (24000/1001) FPS
  17. Color space                              : YUV
  18. Chroma subsampling                       : 4:2:0
  19. Bit depth                                : 8 bits
  20. Scan type                                : Progressive
  21. Bits/(Pixel*Frame)                       : 0.262
  22. Stream size                              : 9.44GB (62%)
  23. Title                                    : War.For.The.Planet.Of.The.Apes.2017.1080p.BluRay.x264.TrueHD.7.1.Atmos-SWTYBLZ
  24. Writing library                          : x264 core 152 r2851 ba24899
  25. Encoding settings                        : cabac=1 / ref=5 / deblock=1:0:0 / analyse=0x3:0x113 / me=umh / subme=8 / psy=1 / psy_rd=1.00:0.00 / mixed_ref=1 / me_range=16 / chroma_me=1 / trellis=1 / 8x8dct=1 / cqm=0 / deadzone=21,11 / fast_pskip=1 / chroma_qp_offset=-2 / threads=24 / lookahead_threads=4 / sliced_threads=0 / nr=0 / decimate=1 / interlaced=0 / bluray_compat=0 / constrained_intra=0 / bframes=3 / b_pyramid=2 / b_adapt=1 / b_bias=0 / direct=3 / weightb=1 / open_gop=0 / weightp=2 / keyint=240 / keyint_min=24 / scenecut=40 / intra_refresh=0 / rc_lookahead=50 / rc=2pass / mbtree=1 / bitrate=9647 / ratetol=1.0 / qcomp=0.60 / qpmin=0 / qpmax=69 / qpstep=4 / cplxblur=20.0 / qblur=0.5 / ip_ratio=1.40 / aq=1:1.00
  26. Language                                 : English
  27. Default                                  : Yes
  28. Forced                                   : No

  29. Audio #1
  30. ID                                       : 2
  31. Format                                   : TrueHD
  32. Format profile                           : TrueHD+Atmos / TrueHD
  33. Codec ID                                 : A_TRUEHD
  34. Duration                                 : 2 h 20 min
  35. Bit rate mode                            : Variable
  36. Bit rate                                 : 5 062 kb/s
  37. Maximum bit rate                         : 8 988 kb/s
  38. Channel(s)                               : Object Based / 8 channels
  39. Channel positions                        : Object Based / Front: L C R, Side: L R, Back: L R, LFE
  40. Sampling rate                            :  / 48.0 kHz
  41. Frame rate                               : 1 200.000 FPS (40 SPF)
  42. Compression mode                         : Lossless
  43. Delay relative to video                  : 32 ms
  44. Stream size                              : 4.96GB (32%)
  45. Title                                    : War.For.The.Planet.Of.The.Apes.2017.1080p.BluRay.x264.TrueHD.7.1.Atmos-SWTYBLZ
  46. Language                                 : English
  47. Default                                  : Yes
  48. Forced                                   : No

  49. Audio #2
  50. ID                                       : 3
  51. Format                                   : AC-3
  52. Format/Info                              : Audio Coding 3
  53. Codec ID                                 : A_AC3
  54. Duration                                 : 2 h 20 min
  55. Bit rate mode                            : Constant
  56. Bit rate                                 : 640 kb/s
  57. Channel(s)                               : 6 channels
  58. Channel positions                        : Front: L C R, Side: L R, LFE
  59. Sampling rate                            : 48.0 kHz
  60. Frame rate                               : 31.250 FPS (1536 SPF)
  61. Bit depth                                : 16 bits
  62. Compression mode                         : Lossy
  63. Delay relative to video                  : 32 ms
  64. Stream size                              : 642 MiB (4%)
  65. Title                                    : War.For.The.Planet.Of.The.Apes.2017.1080p.BluRay.x264.TrueHD.7.1.Atmos-SWTYBLZ
  66. Language                                 : English
  67. Service kind                             : Complete Main
  68. Default                                  : No
  69. Forced                                   : No

  70. Text #1
  71. ID                                       : 4
  72. Format                                   : UTF-8
  73. Codec ID                                 : S_TEXT/UTF8
  74. Codec ID/Info                            : UTF-8 Plain Text
  75. Duration                                 : 1 h 42 min
  76. Bit rate                                 : 5 b/s
  77. Count of elements                        : 192
  78. Stream size                              : 4.22 KiB (0%)
  79. Title                                    : English-FORCED-SRT
  80. Language                                 : English
  81. Default                                  : Yes
  82. Forced                                   : Yes

  83. Text #2
  84. ID                                       : 5
  85. Format                                   : UTF-8
  86. Codec ID                                 : S_TEXT/UTF8
  87. Codec ID/Info                            : UTF-8 Plain Text
  88. Duration                                 : 2 h 8 min
  89. Bit rate                                 : 16 b/s
  90. Count of elements                        : 761
  91. Stream size                              : 15.6 KiB (0%)
  92. Title                                    : English-SRT
  93. Language                                 : English
  94. Default                                  : No
  95. Forced                                   : No

  96. Text #3
  97. ID                                       : 6
  98. Format                                   : UTF-8
  99. Codec ID                                 : S_TEXT/UTF8
  100. Codec ID/Info                            : UTF-8 Plain Text
  101. Duration                                 : 2 h 9 min
  102. Bit rate                                 : 20 b/s
  103. Count of elements                        : 1011
  104. Stream size                              : 19.8 KiB (0%)
  105. Title                                    : English-SDH-SRT
  106. Language                                 : English
  107. Default                                  : No
  108. Forced                                   : No

  109. Text #4
  110. ID                                       : 7
  111. Format                                   : PGS
  112. Muxing mode                              : zlib
  113. Codec ID                                 : S_HDMV/PGS
  114. Codec ID/Info                            : Picture based subtitle format used on BDs/HD-DVDs
  115. Duration                                 : 2 h 9 min
  116. Bit rate                                 : 14.1 kb/s
  117. Count of elements                        : 2022
  118. Stream size                              : 13.1 MiB (0%)
  119. Title                                    : English-PGS
  120. Language                                 : English
  121. Default                                  : No
  122. Forced                                   : No

  123. Text #5
  124. ID                                       : 8
  125. Format                                   : PGS
  126. Muxing mode                              : zlib
  127. Codec ID                                 : S_HDMV/PGS
  128. Codec ID/Info                            : Picture based subtitle format used on BDs/HD-DVDs
  129. Duration                                 : 2 h 18 min
  130. Bit rate                                 : 8 728 b/s
  131. Count of elements                        : 1472
  132. Stream size                              : 8.67 MiB (0%)
  133. Title                                    : Japanese-PGS
  134. Language                                 : Japanese
  135. Default                                  : No
  136. Forced                                   : No

  137. Text #6
  138. ID                                       : 9
  139. Format                                   : PGS
  140. Muxing mode                              : zlib
  141. Codec ID                                 : S_HDMV/PGS
  142. Codec ID/Info                            : Picture based subtitle format used on BDs/HD-DVDs
  143. Duration                                 : 1 h 56 min
  144. Bit rate                                 : 2 726 b/s
  145. Count of elements                        : 408
  146. Stream size                              : 2.28 MiB (0%)
  147. Title                                    : Japanese-PGS
  148. Language                                 : Japanese
  149. Default                                  : No
  150. Forced                                   : No

  151. Text #7
  152. ID                                       : 10
  153. Format                                   : PGS
  154. Muxing mode                              : zlib
  155. Codec ID                                 : S_HDMV/PGS
  156. Codec ID/Info                            : Picture based subtitle format used on BDs/HD-DVDs
  157. Duration                                 : 2 h 18 min
  158. Bit rate                                 : 11.5 kb/s
  159. Count of elements                        : 1560
  160. Stream size                              : 11.5 MiB (0%)
  161. Title                                    : Spanish-PGS
  162. Language                                 : Spanish
  163. Default                                  : No
  164. Forced                                   : No

  165. Text #8
  166. ID                                       : 11
  167. Format                                   : PGS
  168. Muxing mode                              : zlib
  169. Codec ID                                 : S_HDMV/PGS
  170. Codec ID/Info                            : Picture based subtitle format used on BDs/HD-DVDs
  171. Duration                                 : 2 h 18 min
  172. Bit rate                                 : 10.6 kb/s
  173. Count of elements                        : 1550
  174. Stream size                              : 10.5 MiB (0%)
  175. Title                                    : French-PGS
  176. Language                                 : French
  177. Default                                  : No
  178. Forced                                   : No

  179. Text #9
  180. ID                                       : 12
  181. Format                                   : PGS
  182. Muxing mode                              : zlib
  183. Codec ID                                 : S_HDMV/PGS
  184. Codec ID/Info                            : Picture based subtitle format used on BDs/HD-DVDs
  185. Duration                                 : 2 h 18 min
  186. Bit rate                                 : 10.8 kb/s
  187. Count of elements                        : 1538
  188. Stream size                              : 10.8 MiB (0%)
  189. Title                                    : Spanish-PGS
  190. Language                                 : Spanish
  191. Default                                  : No
  192. Forced                                   : No

  193. Text #10
  194. ID                                       : 13
  195. Format                                   : PGS
  196. Muxing mode                              : zlib
  197. Codec ID                                 : S_HDMV/PGS
  198. Codec ID/Info                            : Picture based subtitle format used on BDs/HD-DVDs
  199. Duration                                 : 2 h 18 min
  200. Bit rate                                 : 10.2 kb/s
  201. Count of elements                        : 1374
  202. Stream size                              : 10.1 MiB (0%)
  203. Title                                    : Danish-PGS
  204. Language                                 : Danish
  205. Default                                  : No
  206. Forced                                   : No

  207. Text #11
  208. ID                                       : 14
  209. Format                                   : PGS
  210. Muxing mode                              : zlib
  211. Codec ID                                 : S_HDMV/PGS
  212. Codec ID/Info                            : Picture based subtitle format used on BDs/HD-DVDs
  213. Duration                                 : 2 h 18 min
  214. Bit rate                                 : 10.1 kb/s
  215. Count of elements                        : 1384
  216. Stream size                              : 10.1 MiB (0%)
  217. Title                                    : Dutch-PGS
  218. Language                                 : Dutch
  219. Default                                  : No
  220. Forced                                   : No

  221. Text #12
  222. ID                                       : 15
  223. Format                                   : PGS
  224. Muxing mode                              : zlib
  225. Codec ID                                 : S_HDMV/PGS
  226. Codec ID/Info                            : Picture based subtitle format used on BDs/HD-DVDs
  227. Duration                                 : 2 h 18 min
  228. Bit rate                                 : 10.8 kb/s
  229. Count of elements                        : 1564
  230. Stream size                              : 10.7 MiB (0%)
  231. Title                                    : Finnish-PGS
  232. Language                                 : Finnish
  233. Default                                  : No
  234. Forced                                   : No

  235. Text #13
  236. ID                                       : 16
  237. Format                                   : PGS
  238. Muxing mode                              : zlib
  239. Codec ID                                 : S_HDMV/PGS
  240. Codec ID/Info                            : Picture based subtitle format used on BDs/HD-DVDs
  241. Duration                                 : 2 h 18 min
  242. Bit rate                                 : 12.0 kb/s
  243. Count of elements                        : 1490
  244. Stream size                              : 11.9 MiB (0%)
  245. Title                                    : German-PGS
  246. Language                                 : German
  247. Default                                  : No
  248. Forced                                   : No

  249. Text #14
  250. ID                                       : 17
  251. Format                                   : PGS
  252. Muxing mode                              : zlib
  253. Codec ID                                 : S_HDMV/PGS
  254. Codec ID/Info                            : Picture based subtitle format used on BDs/HD-DVDs
  255. Duration                                 : 2 h 18 min
  256. Bit rate                                 : 11.2 kb/s
  257. Count of elements                        : 1560
  258. Stream size                              : 11.1 MiB (0%)
  259. Title                                    : Italian-PGS
  260. Language                                 : Italian
  261. Default                                  : No
  262. Forced                                   : No

  263. Text #15
  264. ID                                       : 18
  265. Format                                   : PGS
  266. Muxing mode                              : zlib
  267. Codec ID                                 : S_HDMV/PGS
  268. Codec ID/Info                            : Picture based subtitle format used on BDs/HD-DVDs
  269. Duration                                 : 2 h 18 min
  270. Bit rate                                 : 10.3 kb/s
  271. Count of elements                        : 1554
  272. Stream size                              : 10.2 MiB (0%)
  273. Title                                    : Norwegian-PGS
  274. Language                                 : Norwegian
  275. Default                                  : No
  276. Forced                                   : No

  277. Text #16
  278. ID                                       : 19
  279. Format                                   : PGS
  280. Muxing mode                              : zlib
  281. Codec ID                                 : S_HDMV/PGS
  282. Codec ID/Info                            : Picture based subtitle format used on BDs/HD-DVDs
  283. Duration                                 : 2 h 18 min
  284. Bit rate                                 : 11.0 kb/s
  285. Count of elements                        : 1560
  286. Stream size                              : 11.0 MiB (0%)
  287. Title                                    : Swedish-PGS
  288. Language                                 : Swedish
  289. Default                                  : No
  290. Forced                                   : No

  291. Text #17
  292. ID                                       : 20
  293. Format                                   : PGS
  294. Muxing mode                              : zlib
  295. Codec ID                                 : S_HDMV/PGS
  296. Codec ID/Info                            : Picture based subtitle format used on BDs/HD-DVDs
  297. Duration                                 : 2 h 18 min
  298. Bit rate                                 : 9 241 b/s
  299. Count of elements                        : 1582
  300. Stream size                              : 9.18 MiB (0%)
  301. Title                                    : Chinese-PGS
  302. Language                                 : Chinese
  303. Default                                  : No
  304. Forced                                   : No

  305. Text #18
  306. ID                                       : 21
  307. Format                                   : PGS
  308. Muxing mode                              : zlib
  309. Codec ID                                 : S_HDMV/PGS
  310. Codec ID/Info                            : Picture based subtitle format used on BDs/HD-DVDs
  311. Duration                                 : 2 h 18 min
  312. Bit rate                                 : 9 545 b/s
  313. Count of elements                        : 1548
  314. Stream size                              : 9.48 MiB (0%)
  315. Title                                    : Czech-PGS
  316. Language                                 : Czech
  317. Default                                  : No
  318. Forced                                   : No

  319. Text #19
  320. ID                                       : 22
  321. Format                                   : PGS
  322. Muxing mode                              : zlib
  323. Codec ID                                 : S_HDMV/PGS
  324. Codec ID/Info                            : Picture based subtitle format used on BDs/HD-DVDs
  325. Duration                                 : 2 h 18 min
  326. Bit rate                                 : 8 805 b/s
  327. Count of elements                        : 1582
  328. Stream size                              : 8.75 MiB (0%)
  329. Language                                 : Chinese
  330. Default                                  : No
  331. Forced                                   : No

  332. Text #20
  333. ID                                       : 23
  334. Format                                   : PGS
  335. Muxing mode                              : zlib
  336. Codec ID                                 : S_HDMV/PGS
  337. Codec ID/Info                            : Picture based subtitle format used on BDs/HD-DVDs
  338. Duration                                 : 2 h 18 min
  339. Bit rate                                 : 9 388 b/s
  340. Count of elements                        : 1522
  341. Stream size                              : 9.33 MiB (0%)
  342. Title                                    : Polish-PGS
  343. Language                                 : Polish
  344. Default                                  : No
  345. Forced                                   : No

  346. Text #21
  347. ID                                       : 24
  348. Format                                   : PGS
  349. Muxing mode                              : zlib
  350. Codec ID                                 : S_HDMV/PGS
  351. Codec ID/Info                            : Picture based subtitle format used on BDs/HD-DVDs
  352. Duration                                 : 1 h 42 min
  353. Bit rate                                 : 2 563 b/s
  354. Count of elements                        : 383
  355. Stream size                              : 1.88 MiB (0%)
  356. Title                                    : English-FORCED-PGS
  357. Language                                 : English
  358. Default                                  : No
  359. Forced                                   : No

  360. Text #22
  361. ID                                       : 25
  362. Format                                   : PGS
  363. Muxing mode                              : zlib
  364. Codec ID                                 : S_HDMV/PGS
  365. Codec ID/Info                            : Picture based subtitle format used on BDs/HD-DVDs
  366. Duration                                 : 2 h 19 min
  367. Bit rate                                 : 32.3 kb/s
  368. Count of elements                        : 2864
  369. Stream size                              : 32.4 MiB (0%)
  370. Title                                    : Japanese-SDH-PGS
  371. Language                                 : Japanese
  372. Default                                  : No
  373. Forced                                   : No

  374. Text #23
  375. ID                                       : 26
  376. Format                                   : PGS
  377. Muxing mode                              : zlib
  378. Codec ID                                 : S_HDMV/PGS
  379. Codec ID/Info                            : Picture based subtitle format used on BDs/HD-DVDs
  380. Duration                                 : 2 h 12 min
  381. Bit rate                                 : 60.0 kb/s
  382. Count of elements                        : 3914
  383. Stream size                              : 57.0 MiB (0%)
  384. Title                                    : English-FORCED-PGS
  385. Language                                 : English
  386. Default                                  : No
  387. Forced                                   : No

  388. Text #24
  389. ID                                       : 27
  390. Format                                   : PGS
  391. Muxing mode                              : zlib
  392. Codec ID                                 : S_HDMV/PGS
  393. Codec ID/Info                            : Picture based subtitle format used on BDs/HD-DVDs
  394. Duration                                 : 2 h 19 min
  395. Bit rate                                 : 50.5 kb/s
  396. Count of elements                        : 3738
  397. Stream size                              : 50.5 MiB (0%)
  398. Title                                    : Spanish-SDH-PGS
  399. Language                                 : Spanish
  400. Default                                  : No
  401. Forced                                   : No

  402. Text #25
  403. ID                                       : 28
  404. Format                                   : PGS
  405. Muxing mode                              : zlib
  406. Codec ID                                 : S_HDMV/PGS
  407. Codec ID/Info                            : Picture based subtitle format used on BDs/HD-DVDs
  408. Duration                                 : 2 h 19 min
  409. Bit rate                                 : 48.4 kb/s
  410. Count of elements                        : 3714
  411. Stream size                              : 48.5 MiB (0%)
  412. Title                                    : French-SDH-PGS
  413. Language                                 : French
  414. Default                                  : No
  415. Forced                                   : No

  416. Text #26
  417. ID                                       : 29
  418. Format                                   : PGS
  419. Muxing mode                              : zlib
  420. Codec ID                                 : S_HDMV/PGS
  421. Codec ID/Info                            : Picture based subtitle format used on BDs/HD-DVDs
  422. Duration                                 : 2 h 19 min
  423. Bit rate                                 : 50.8 kb/s
  424. Count of elements                        : 3736
  425. Stream size                              : 50.9 MiB (0%)
  426. Title                                    : Spanish-SDH-PGS
  427. Language                                 : Spanish
  428. Default                                  : No
  429. Forced                                   : No

  430. Text #27
  431. ID                                       : 30
  432. Format                                   : PGS
  433. Muxing mode                              : zlib
  434. Codec ID                                 : S_HDMV/PGS
  435. Codec ID/Info                            : Picture based subtitle format used on BDs/HD-DVDs
  436. Duration                                 : 2 h 19 min
  437. Bit rate                                 : 50.4 kb/s
  438. Count of elements                        : 3734
  439. Stream size                              : 50.5 MiB (0%)
  440. Title                                    : Danish-SDH-PGS
  441. Language                                 : Danish
  442. Default                                  : No
  443. Forced                                   : No

  444. Text #28
  445. ID                                       : 31
  446. Format                                   : PGS
  447. Muxing mode                              : zlib
  448. Codec ID                                 : S_HDMV/PGS
  449. Codec ID/Info                            : Picture based subtitle format used on BDs/HD-DVDs
  450. Duration                                 : 2 h 19 min
  451. Bit rate                                 : 47.9 kb/s
  452. Count of elements                        : 3718
  453. Stream size                              : 48.0 MiB (0%)
  454. Title                                    : Dutch-SDH-PGS
  455. Language                                 : Dutch
  456. Default                                  : No
  457. Forced                                   : No

  458. Text #29
  459. ID                                       : 32
  460. Format                                   : PGS
  461. Muxing mode                              : zlib
  462. Codec ID                                 : S_HDMV/PGS
  463. Codec ID/Info                            : Picture based subtitle format used on BDs/HD-DVDs
  464. Duration                                 : 2 h 19 min
  465. Bit rate                                 : 45.3 kb/s
  466. Count of elements                        : 3738
  467. Stream size                              : 45.3 MiB (0%)
  468. Title                                    : Finnish-SDH-PGS
  469. Language                                 : Finnish
  470. Default                                  : No
  471. Forced                                   : No

  472. Text #30
  473. ID                                       : 33
  474. Format                                   : PGS
  475. Muxing mode                              : zlib
  476. Codec ID                                 : S_HDMV/PGS
  477. Codec ID/Info                            : Picture based subtitle format used on BDs/HD-DVDs
  478. Duration                                 : 2 h 19 min
  479. Bit rate                                 : 51.9 kb/s
  480. Count of elements                        : 3728
  481. Stream size                              : 51.9 MiB (0%)
  482. Title                                    : German-SDH-PGS
  483. Language                                 : German
  484. Default                                  : No
  485. Forced                                   : No

  486. Text #31
  487. ID                                       : 34
  488. Format                                   : PGS
  489. Muxing mode                              : zlib
  490. Codec ID                                 : S_HDMV/PGS
  491. Codec ID/Info                            : Picture based subtitle format used on BDs/HD-DVDs
  492. Duration                                 : 2 h 19 min
  493. Bit rate                                 : 48.3 kb/s
  494. Count of elements                        : 3738
  495. Stream size                              : 48.3 MiB (0%)
  496. Title                                    : Italian-SDH-PGS
  497. Language                                 : Italian
  498. Default                                  : No
  499. Forced                                   : No

  500. Text #32
  501. ID                                       : 35
  502. Format                                   : PGS
  503. Muxing mode                              : zlib
  504. Codec ID                                 : S_HDMV/PGS
  505. Codec ID/Info                            : Picture based subtitle format used on BDs/HD-DVDs
  506. Duration                                 : 2 h 19 min
  507. Bit rate                                 : 49.6 kb/s
  508. Count of elements                        : 3738
  509. Stream size                              : 49.6 MiB (0%)
  510. Title                                    : Norwegian-SDH-PGS
  511. Language                                 : Norwegian
  512. Default                                  : No
  513. Forced                                   : No

  514. Text #33
  515. ID                                       : 36
  516. Format                                   : PGS
  517. Muxing mode                              : zlib
  518. Codec ID                                 : S_HDMV/PGS
  519. Codec ID/Info                            : Picture based subtitle format used on BDs/HD-DVDs
  520. Duration                                 : 2 h 19 min
  521. Bit rate                                 : 47.7 kb/s
  522. Count of elements                        : 3738
  523. Stream size                              : 47.7 MiB (0%)
  524. Title                                    : Swedish-SDH-PGS
  525. Language                                 : Swedish
  526. Default                                  : No
  527. Forced                                   : No

  528. Menu
  529. 00:00:00.000                             : en:Chapter 1
  530. 00:05:05.888                             : en:Chapter 2
  531. 00:09:06.712                             : en:Chapter 3
  532. 00:12:14.108                             : en:Chapter 4
  533. 00:18:21.016                             : en:Chapter 5
  534. 00:25:04.503                             : en:Chapter 6
  535. 00:30:17.398                             : en:Chapter 7
  536. 00:34:13.092                             : en:Chapter 8
  537. 00:37:46.347                             : en:Chapter 9
  538. 00:42:54.446                             : en:Chapter 10
  539. 00:49:31.802                             : en:Chapter 11
  540. 00:54:14.626                             : en:Chapter 12
  541. 00:58:49.817                             : en:Chapter 13
  542. 01:05:24.128                             : en:Chapter 14
  543. 01:10:18.380                             : en:Chapter 15
  544. 01:14:53.822                             : en:Chapter 16
  545. 01:18:59.192                             : en:Chapter 17
  546. 01:25:35.672                             : en:Chapter 18
  547. 01:29:37.372                             : en:Chapter 19
  548. 01:34:22.823                             : en:Chapter 20
  549. 01:39:27.711                             : en:Chapter 21
  550. 01:43:48.222                             : en:Chapter 22
  551. 01:48:45.393                             : en:Chapter 23
  552. 01:55:20.580                             : en:Chapter 24
  553. 01:58:04.702                             : en:Chapter 25
  554. 02:02:33.929                             : en:Chapter 26
  555. 02:05:54.797                             : en:Chapter 27
  556. 02:12:51.213                             : en:Chapter 28



复制代码
复制代码
064859r22gs6y62eppspbp.jpg 064859fsmmrywfc5isc7a5.jpg 064859jr62rya2w2hv6cc8.jpg 064900fucrar51aqnn95d5.jpg 064900of11zaeef3wja11a.jpg 064900bgund2m0g0090k9i.jpg





回复

使用道具 举报

蓝光币
1
发表于 2018-1-12 07:39:18 | 显示全部楼层
感谢,去年没去看,现在补
回复

使用道具 举报

蓝光币
8
发表于 2022-2-4 10:03:52 | 显示全部楼层

感谢,牛逼
回复

使用道具 举报

懒得打字嘛,点击右侧快捷回复 【右侧内容,后台自定义】
您需要登录后才可以回帖 登录 | 立即加入

本版积分规则

Archiver| |网站地图

Copyright © 2024 Comsenz Inc. Powered by 蓝光电影网

本站内容由用户自主分享和转载自互联网,转载目的在于传递更多信息,并不代表本网赞同其观点和对其真实性负责。

如有侵权、违反国家法律政策行为,请联系我们,我们会第一时间及时清除和处理!

举报反馈邮箱:4k1080.com@gmail.com

快速回复 返回顶部 返回列表