找回密码

查看: 3099|回复: 0

[剧情] 情人们/移情记 The.Lovers.1958.1080p.BluRay.x264-USURY 7.95GB

[复制链接]
蓝光币
1974
发表于 2017-12-20 17:42:53 | 显示全部楼层 |阅读模式
011430stmzbh33ok889bt1.jpg
◎译  名 情人们 / 移情记 / 情人们 / 孽恋 / The Lovers
◎片  名 情人们 Les amants
◎年  代 1958
◎国  家 法国
◎类  别 剧情
◎语  言 法语
◎上映日期 1958-09-06(威尼斯电影节) / 1958-11-05(法国)
◎IMDb评分  7.3/10 from 3,828 users
◎IMDb链接  http://www.imdb.com/title/tt0052556/
◎豆瓣评分 7.8/10 from 1253 users
◎豆瓣链接 https://movie.douban.com/subject/1296250/
◎片  长 Argentina: 90 分钟
◎导  演 路易·马勒
◎主  演 让娜·莫罗 Jeanne Moreau
      阿兰·居尼 Alain Cuny
      Jean-Marc Bory
      朱迪思·马格里 Judith Magre
      约瑟·路易斯·德·维拉龙卡 José Luis de Villalonga

◎简  介 

  报社老板的妻子让娜(让娜?莫罗饰)厌倦了死板无味的家庭生活,而情人的冷酷也未能赐与她更多的精神慰籍。不宁愿于镜花水月的空虚生活的让娜,似乎还在期待着一些奇遇。与年轻浪子伯纳德在公路上的相逢,重新激起了她的恋爱空想。虽然在起头阶段,两人并分歧拍,但他的青春气味与自力思维,逐步激起了她对庸俗生活的厌反感。实在在骨子里,两人是一般地天生叛逆。一场无趣的交际晚宴后,两人似心有灵犀地在花园中相遇,随而泛舟溪边,安步田野,巫山云雨,意乱情迷。拂晓,让娜甩开了惊呆的丈夫和朋友,与伯纳德驱车而去,不斟酌能否会有明天,也不晓得要往何处去。

◎获奖情况 

  第19届威尼斯电影节 (1958)
  主比赛单元 金狮奖 (提名) 路易·马勒
  评审团出格奖 路易·马勒



  1. Video
  2. ID                                       : 1
  3. Format                                   : AVC
  4. Format/Info                              : Advanced Video Codec
  5. Format profile                           : [email]High@L4.1[/email]
  6. Format settings                          : CABAC / 5 Ref Frames
  7. Format settings, CABAC                   : Yes
  8. Format settings, RefFrames               : 5 frames
  9. Codec ID                                 : V_MPEG4/ISO/AVC
  10. Duration                                 : 1 h 30 min
  11. Bit rate                                 : 12.3 Mb/s
  12. Width                                    : 1 920 pixels
  13. Height                                   : 816 pixels
  14. Display aspect ratio                     : 2.35:1
  15. Frame rate mode                          : Constant
  16. Frame rate                               : 24.000 FPS
  17. Color space                              : YUV
  18. Chroma subsampling                       : 4:2:0
  19. Bit depth                                : 8 bits
  20. Scan type                                : Progressive
  21. Bits/(Pixel*Frame)                       : 0.328
  22. Stream size                              : 7.80GB (98%)
  23. Writing library                          : x264 core 152 r2851 ba24899
  24. Encoding settings                        : cabac=1 / ref=5 / deblock=1:-3:-3 / analyse=0x3:0x133 / me=umh / subme=9 / psy=1 / psy_rd=1.00:0.00 / mixed_ref=1 / me_range=16 / chroma_me=1 / trellis=2 / 8x8dct=1 / cqm=0 / deadzone=21,11 / fast_pskip=0 / chroma_qp_offset=-2 / threads=18 / lookahead_threads=1 / sliced_threads=0 / nr=0 / decimate=1 / interlaced=0 / bluray_compat=0 / constrained_intra=0 / bframes=3 / b_pyramid=2 / b_adapt=1 / b_bias=0 / direct=3 / weightb=1 / open_gop=0 / weightp=2 / keyint=240 / keyint_min=24 / scenecut=40 / intra_refresh=0 / rc_lookahead=50 / rc=2pass / mbtree=1 / bitrate=12317 / ratetol=1.0 / qcomp=0.60 / qpmin=0 / qpmax=69 / qpstep=4 / cplxblur=20.0 / qblur=0.5 / ip_ratio=1.40 / aq=1:1.00
  25. Language                                 : English
  26. Default                                  : Yes
  27. Forced                                   : No

  28. Audio
  29. ID                                       : 2
  30. Format                                   : FLAC
  31. Format/Info                              : Free Lossless Audio Codec
  32. Codec ID                                 : A_FLAC
  33. Duration                                 : 1 h 30 min
  34. Bit rate mode                            : Variable
  35. Bit rate                                 : 229 kb/s
  36. Channel(s)                               : 2 channels
  37. Channel positions                        : Front: L R
  38. Sampling rate                            : 48.0 kHz
  39. Frame rate                               : 11.719 FPS (4096 SPF)
  40. Bit depth                                : 16 bits
  41. Stream size                              : 149 MiB (2%)
  42. Writing library                          : libFLAC 1.2.1 (UTC 2007-09-17)
  43. Language                                 : French
  44. Default                                  : Yes
  45. Forced                                   : No

  46. Text
  47. ID                                       : 3
  48. Format                                   : UTF-8
  49. Codec ID                                 : S_TEXT/UTF8
  50. Codec ID/Info                            : UTF-8 Plain Text
  51. Duration                                 : 1 h 29 min
  52. Bit rate                                 : 32 b/s
  53. Count of elements                        : 721
  54. Stream size                              : 21.7 KiB (0%)
  55. Title                                    : English
  56. Language                                 : English
  57. Default                                  : Yes
  58. Forced                                   : Yes

  59. Menu
  60. 00:00:00.000                             : en:00:00:00.000
  61. 00:05:58.750                             : en:00:05:58.750
  62. 00:13:42.958                             : en:00:13:42.958
  63. 00:20:00.958                             : en:00:20:00.958
  64. 00:24:39.167                             : en:00:24:39.167
  65. 00:33:03.458                             : en:00:33:03.458
  66. 00:41:22.042                             : en:00:41:22.042
  67. 00:51:24.625                             : en:00:51:24.625
  68. 00:58:44.917                             : en:00:58:44.917
  69. 01:05:17.792                             : en:01:05:17.792
  70. 01:17:06.958                             : en:01:17:06.958
  71. 01:25:25.292                             : en:01:25:25.292




复制代码
复制代码
011431yzun78p7uht7kcfi.jpg






回复

使用道具 举报

懒得打字嘛,点击右侧快捷回复 【右侧内容,后台自定义】
您需要登录后才可以回帖 登录 | 立即加入

本版积分规则

Archiver| |网站地图

Copyright © 2024 Comsenz Inc. Powered by 蓝光电影网

本站内容由用户自主分享和转载自互联网,转载目的在于传递更多信息,并不代表本网赞同其观点和对其真实性负责。

如有侵权、违反国家法律政策行为,请联系我们,我们会第一时间及时清除和处理!

举报反馈邮箱:4k1080.com@gmail.com

快速回复 返回顶部 返回列表