找回密码

查看: 14691|回复: 4

[爱情] 黑天使.Black Angel.2002.IT.BluRay.1920x1080p.x264.AC3-KOOK.[中意字幕] 10.1GB

[复制链接]
蓝光币
1971
发表于 2017-12-20 18:27:57 | 显示全部楼层 |阅读模式
黑天使.Black Angel.2002.IT.BluRay.1920x1080p.x264.AC3-KOOK.[中意字幕] 10.1GB
072503p6mzb8z5m8izyf8y.jpg
072506enopipp2uulud5fc.jpg
※※※※※※※ 影片信息 ※※※※※※※
◎片   名 Senso  45
◎译   名 黑天使/Black Angel
◎年   代 2002
◎国   家 意大利
◎类   别 剧情 / 恋爱 / 惊悚 / 情色
◎语   言 意大利语
◎上映日 期 2002-04-12
◎字   幕 简体字幕/繁体字幕/意大利笔墨幕
◎IMDB 评分  5.2/10 from 1309 users
◎豆瓣 评分  6.6/10 from 3513 users
◎视频尺 寸  1920x1080p
◎片   长 2.07.23
◎导   演 丁度·巴拉斯
◎编     剧  丁度·巴拉斯
◎主   演 安娜·加列娜 / 加布埃尔·加科 / Franco Branciaroli

◎简  介
    影片报告了二战前期,发生在意大利水城威尼斯的一段黑色恋爱故事。女仆人公莉威亚是一位风情万种的贵夫人,她的老公卡罗比她年长28岁,已经步入了古稀之年,是一位当地文化届的富翁。在一次旁观话剧表演的时辰,莉威亚结识了年轻英俊的纳粹军官哈莫特。并与其坠入了爱河。由于与丈夫在年龄和爱好上的差异,形成了莉威亚持久在生活和情欲上的空虚与失落。所以莉威亚几近无私的爱上了哈莫特,成为了哈莫特恋爱的俘虏。片中莉威亚有两段心灵读白说道:“我的心里和大脑已经狂热,哈莫特让我超越了自我,把我不曾有的愿望展露,我想我已经超越了我的极限。”“我之前历来没有跪倒在汉子眼前,是哈莫特燃起了我的愿望,为了他我甚至愿意出售自己的身材来玉成他的需求。”经过这两段动人肺腑的对白,我们不丢脸出莉威亚对哈莫特的爱是何等的深和依靠,而哈莫特却是在偶一为之,操纵这莉威亚的金钱与支出。终极莉威亚发现了哈莫特对她的欺骗,并在一向暗恋着她的汉子尤戈的帮助下,揭漏了哈莫特的真脸孔,让军方处决了哈莫特。在影片的最初,导演放置了一场莉威亚和尤戈到刑场旁观哈莫特被处决的戏。当枪声响起后,另一位被哈莫特的爱所俘虏的女人趴在哈莫特身上抽泣,看到此情此景,莉威亚妒火中烧,愤慨之下要求尤戈与她做爱。而尤戈却象如获珍宝一样的说了一句:“哦!你是我的天使”。
  莉威亚(安娜·加列娜 Anna Galiena 饰)年轻美丽,嫁给了年长28岁的文化权贵卡罗(Antonio Salines 饰),过大的年龄差异,令莉威亚一向在感情和情欲上感应不满足。一次话剧表演,莉威亚熟悉了年轻英俊的纳粹军官哈罗特(加布埃尔·加科 Gabriel Garko 饰),敏捷与他坠入情网。莉威亚的爱浓郁且毫无保存,始终对哈罗特欲火灼热,而哈罗特却只是偶一为之,妄想她的身材和金钱。这个纳粹军官实在心里深深厌恶和诅咒战争,是以只想从女人身上骗到钱,退役过好生活,但也没法阻止莉威亚的爱和愿望将两人带向扑灭……
※※※※※※※ 参数信息 ※※※※※※※
General
Unique ID                      : 178824798696164864957134585153083351885 (0x8688674934ED8486B45ACD395267234D)
Format                         : Matroska
Format version                 : Version 4 / Version 2
File size                      : 10.2GB
Duration                       : 2 h 7 min
Overall bit rate               : 11.4 Mb/s
Encoded date                   : UTC 2017-12-15 21:42:56
Writing application            : mkvmerge v9.4.2 ( So High ) 64bit
Writing library                : libebml v1.3.4 + libmatroska v1.4.5
Attachments                    : 正式海报.jpg
Video
ID                             : 1
Format                         : AVC
Format/Info                    : Advanced Video Codec
Format profile                 : Main@L4.1
Format settings, CABAC         : Yes
Format settings, ReFrames      : 1 frame
Format settings, GOP           : M=1, N=12
Codec ID                       : V_MPEG4/ISO/AVC
Duration                       : 2 h 7 min
Bit rate                       : 11.0 Mb/s
Width                          : 1 920 pixels
Height                         : 1 080 pixels
Display aspect ratio           : 16:9
Frame rate mode                : Constant
Frame rate                     : 23.976 (23976/1000) FPS
Color space                    : YUV
Chroma subsampling             : 4:2:0
Bit depth                      : 8 bits
Scan type                      : Progressive
Bits/(Pixel*Frame)             : 0.221
Stream size                    : 9.77GB (96%)
Title                          : kook
Writing library                : x264 core 125
Encoding settings              : cabac=1 / ref=1 / deblock=1:0:0 / analyse=0x1:0x131 / me=hex / subme=6 / psy=1 / psy_rd=1.00:0.00 / mixed_ref=0 / me_range=16 / chroma_me=1 / trellis=0 / 8x8dct=0 / cqm=0 / deadzone=21,11 / fast_pskip=1 / chroma_qp_offset=-2 / threads=4 / lookahead_threads=1 / sliced_threads=0 / nr=0 / decimate=1 / interlaced=0 / bluray_compat=0 / constrained_intra=0 / bframes=0 / weightp=2 / keyint=12 / keyint_min=7 / scenecut=40 / intra_refresh=0 / rc_lookahead=12 / rc=abr / mbtree=1 / bitrate=11000 / ratetol=1.0 / qcomp=0.60 / qpmin=6 / qpmax=51 / qpstep=4 / ip_ratio=1.40 / aq=1:1.00
Default                        : Yes
Forced                         : No
Audio
ID                             : 2
Format                         : AC-3
Format/Info                    : Audio Coding 3
Mode extension                 : CM (complete main)
Format settings, Endianness    : Big
Codec ID                       : A_AC3
Duration                       : 2 h 7 min
Bit rate mode                  : Constant
Bit rate                       : 448 kb/s
Channel(s)                     : 6 channels
Channel positions              : Front: L C R, Side: L R, LFE
Sampling rate                  : 48.0 kHz
Frame rate                     : 31.250 FPS (1536 spf)
Compression mode               : Lossy
Stream size                    : 408 MiB (4%)
Title                          : ita
Language                       : Italian
Default                        : Yes
Forced                         : No
Text #1
ID                             : 3
Format                         : ASS
Codec ID                       : S_TEXT/ASS
Codec ID/Info                  : Advanced Sub Station Alpha
Duration                       : 2 h 4 min
Bit rate                       : 65 b/s
Count of elements              : 977
Compression mode               : Lossless
Stream size                    : 59.5 KiB (0%)
Title                          : 简体字幕
Language                       : Chinese
Default                        : Yes
Forced                         : No
Text #2
ID                             : 4
Format                         : ASS
Codec ID                       : S_TEXT/ASS
Codec ID/Info                  : Advanced Sub Station Alpha
Duration                       : 2 h 4 min
Bit rate                       : 65 b/s
Count of elements              : 977
Compression mode               : Lossless
Stream size                    : 59.5 KiB (0%)
Title                          : 繁体字幕
Language                       : Chinese
Default                        : No
Forced                         : No
Text #3
ID                             : 5
Format                         : PGS
Muxing mode                    : zlib
Codec ID                       : S_HDMV/PGS
Codec ID/Info                  : Picture based subtitle format used on BDs/HD-DVDs
Duration                       : 2 h 2 min
Bit rate                       : 3 805 b/s
Count of elements              : 1431
Stream size                    : 3.32 MiB (0%)
Title                          : 意语字幕
Language                       : Italian
Default                        : No
Forced                         : No
072508a498d4rt8ti894g4.jpg
                                                                                                                                                      





回复

使用道具 举报

蓝光币
103
发表于 2020-8-21 16:05:55 | 显示全部楼层

我看不错噢 谢谢楼主!蓝光电影网越来越好!
回复

使用道具 举报

蓝光币
103
发表于 2020-8-22 15:05:59 | 显示全部楼层
感谢楼主分享 这个导演貌似很有名气的
回复

使用道具 举报

蓝光币
2604
发表于 2021-1-18 15:38:32 | 显示全部楼层
感谢啦!无私的楼主!
回复

使用道具 举报

懒得打字嘛,点击右侧快捷回复 【右侧内容,后台自定义】
您需要登录后才可以回帖 登录 | 立即加入

本版积分规则

Archiver| |网站地图

Copyright © 2024 Comsenz Inc. Powered by 蓝光电影网

本站内容由用户自主分享和转载自互联网,转载目的在于传递更多信息,并不代表本网赞同其观点和对其真实性负责。

如有侵权、违反国家法律政策行为,请联系我们,我们会第一时间及时清除和处理!

举报反馈邮箱:4k1080.com@gmail.com

快速回复 返回顶部 返回列表