找回密码

查看: 4912|回复: 4

[动作] 特工绍特/特务间谍 Salt.2010.PROPER.RERIP.1080p.BluRay.x264.TrueHD.7.1.Atmos-SWTYBLZ 11.34GB

[复制链接]
蓝光币
1982
发表于 2017-12-20 19:24:56 | 显示全部楼层 |阅读模式
201346wffxbc4szs3axk9u.jpg
◎译  名 奸细绍特/特务特务
◎片  名 Salt
◎年  代 2010
◎产  地 美国
◎类  别 行动/悬疑/惊悚
◎语  言 英语/俄语/朝鲜语
◎上映日期 2010-07-19(加州首映)/2010-07-23(美国)
◎IMDb评分  6.4/10 from 262,216 users
◎IMDb链接  http://www.imdb.com/title/tt0944835/
◎豆瓣评分 7.2/10 from 103,856 users
◎豆瓣链接 https://movie.douban.com/subject/2153526/
◎片  长 100分钟/104分钟(导演剪辑版)
◎导  演 菲利普·诺伊斯 Phillip Noyce
◎主  演 安吉丽娜·朱莉 Angelina Jolie
      列维·施瑞博尔 Liev Schreiber
      切瓦特·埃加福特 Chiwetel Ejiofor
      达尼尔·奥勒布里斯基 Daniel Olbrychski
      奧古斯特·迪赫 August Diehl
      丹尼尔·皮尔斯 Daniel Pearce
      Hunt Block
      安德鲁·布劳尔 Andre Braugher
      奥莱克·克鲁帕 Olek Krupa
      佐伊·利斯特·琼斯 Zoe Lister Jones

◎简  介

  成婚纪念日当天,CIA奸细伊芙琳·绍特(安吉丽娜·朱莉 Angelina Jolie 饰)受命审判一位投案自首的俄罗斯特务。对方宣称自80年月便潜入美国,而且流露有一位特务大师曾练习数名儿童,将他们培育成特务送入普通的美国家庭中,伺机刺杀美国总统。令在场一切奸细震动的是,这个俄国人竟指认绍特是这群孩子中的一员。
  掉臂CIA捕快们的阻止,绍特执意返回家中。经过一番惊险追逐,她临时逃过昔日同伴的追捕。未几,俄罗斯总统拜候美国,绍特再次卷入各类诡计当中,而她的实在身份也变得越发扑朔迷离……


  1. Video
  2. ID                                       : 1
  3. Format                                   : AVC
  4. Format/Info                              : Advanced Video Codec
  5. Format profile                           : [url=mailto:High@L4.1]High@L4.1[/url]
  6. Format settings                          : CABAC / 5 Ref Frames
  7. Format settings, CABAC                   : Yes
  8. Format settings, ReFrames                : 5 frames
  9. Codec ID                                 : V_MPEG4/ISO/AVC
  10. Duration                                 : 1 h 39 min
  11. Bit rate                                 : 10.3 Mb/s
  12. Width                                    : 1 920 pixels
  13. Height                                   : 802 pixels
  14. Display aspect ratio                     : 2.40:1
  15. Frame rate mode                          : Constant
  16. Frame rate                               : 23.976 (24000/1001) FPS
  17. Color space                              : YUV
  18. Chroma subsampling                       : 4:2:0
  19. Bit depth                                : 8 bits
  20. Scan type                                : Progressive
  21. Bits/(Pixel*Frame)                       : 0.279
  22. Stream size                              : 7.20GB (63%)
  23. Title                                    : Salt.2010.PROPER.RERIP.1080p.BluRay.x264.TrueHD.7.1.Atmos-SWTYBLZ
  24. Writing library                          : x264 core 148 r2748 97eaef2
  25. Encoding settings                        : cabac=1 / ref=5 / deblock=1:-1:-1 / analyse=0x3:0x133 / me=umh / subme=10 / psy=1 / psy_rd=1.00:0.15 / mixed_ref=1 / me_range=48 / chroma_me=1 / trellis=2 / 8x8dct=1 / cqm=0 / deadzone=21,11 / fast_pskip=1 / chroma_qp_offset=-3 / threads=25 / lookahead_threads=4 / sliced_threads=0 / nr=0 / decimate=0 / interlaced=0 / bluray_compat=0 / constrained_intra=0 / bframes=8 / b_pyramid=2 / b_adapt=2 / b_bias=0 / direct=3 / weightb=1 / open_gop=0 / weightp=2 / keyint=250 / keyint_min=23 / scenecut=40 / intra_refresh=0 / rc_lookahead=60 / rc=crf / mbtree=1 / crf=19.0 / qcomp=0.60 / qpmin=0 / qpmax=69 / qpstep=4 / ip_ratio=1.40 / aq=1:1.00
  26. Language                                 : English
  27. Default                                  : Yes
  28. Forced                                   : No

  29. Audio #1
  30. ID                                       : 2
  31. Format                                   : TrueHD
  32. Format profile                           : TrueHD+Atmos / TrueHD
  33. Codec ID                                 : A_TRUEHD
  34. Duration                                 : 1 h 39 min
  35. Bit rate mode                            : Variable
  36. Bit rate                                 : 5 135 kb/s
  37. Maximum bit rate                         : 8 778 kb/s
  38. Channel(s)                               : Object Based / 8 channels
  39. Channel positions                        : Object Based / Front: L C R, Side: L R, Back: L R, LFE
  40. Sampling rate                            :  / 48.0 kHz
  41. Frame rate                               : 1 200.000 FPS (40 SPF)
  42. Compression mode                         : Lossless
  43. Stream size                              : 3.59GB (32%)
  44. Title                                    : Salt.2010.PROPER.RERIP.1080p.BluRay.x264.TrueHD.7.1.Atmos-SWTYBLZ
  45. Language                                 : English
  46. Default                                  : Yes
  47. Forced                                   : No

  48. Audio #2
  49. ID                                       : 3
  50. Format                                   : AC-3
  51. Format/Info                              : Audio Coding 3
  52. Codec ID                                 : A_AC3
  53. Duration                                 : 1 h 40 min
  54. Bit rate mode                            : Constant
  55. Bit rate                                 : 640 kb/s
  56. Channel(s)                               : 6 channels
  57. Channel positions                        : Front: L C R, Side: L R, LFE
  58. Sampling rate                            : 48.0 kHz
  59. Frame rate                               : 31.250 FPS (1536 SPF)
  60. Bit depth                                : 16 bits
  61. Compression mode                         : Lossy
  62. Stream size                              : 458 MiB (4%)
  63. Title                                    : Salt.2010.PROPER.RERIP.1080p.BluRay.x264.TrueHD.7.1.Atmos-SWTYBLZ
  64. Language                                 : English
  65. Service kind                             : Complete Main
  66. Default                                  : No
  67. Forced                                   : No

  68. Text #1
  69. ID                                       : 4
  70. Format                                   : PGS
  71. Muxing mode                              : zlib
  72. Codec ID                                 : S_HDMV/PGS
  73. Codec ID/Info                            : Picture based subtitle format used on BDs/HD-DVDs
  74. Duration                                 : 1 h 35 min
  75. Bit rate                                 : 20.2 kb/s
  76. Count of elements                        : 2094
  77. Stream size                              : 13.8 MiB (0%)
  78. Title                                    : English-PGS
  79. Language                                 : English
  80. Default                                  : Yes
  81. Forced                                   : No

  82. Text #2
  83. ID                                       : 5
  84. Format                                   : PGS
  85. Muxing mode                              : zlib
  86. Codec ID                                 : S_HDMV/PGS
  87. Codec ID/Info                            : Picture based subtitle format used on BDs/HD-DVDs
  88. Duration                                 : 1 h 30 min
  89. Bit rate                                 : 27.1 kb/s
  90. Count of elements                        : 1850
  91. Stream size                              : 17.6 MiB (0%)
  92. Title                                    : English-PGS
  93. Language                                 : English
  94. Default                                  : No
  95. Forced                                   : No

  96. Text #3
  97. ID                                       : 6
  98. Format                                   : PGS
  99. Muxing mode                              : zlib
  100. Codec ID                                 : S_HDMV/PGS
  101. Codec ID/Info                            : Picture based subtitle format used on BDs/HD-DVDs
  102. Duration                                 : 1 h 39 min
  103. Bit rate                                 : 20.5 kb/s
  104. Count of elements                        : 1851
  105. Stream size                              : 14.5 MiB (0%)
  106. Title                                    : French-PGS
  107. Language                                 : French
  108. Default                                  : No
  109. Forced                                   : No

  110. Text #4
  111. ID                                       : 7
  112. Format                                   : PGS
  113. Muxing mode                              : zlib
  114. Codec ID                                 : S_HDMV/PGS
  115. Codec ID/Info                            : Picture based subtitle format used on BDs/HD-DVDs
  116. Duration                                 : 1 h 30 min
  117. Bit rate                                 : 25.4 kb/s
  118. Count of elements                        : 1919
  119. Stream size                              : 16.5 MiB (0%)
  120. Title                                    : Spanish-PGS
  121. Language                                 : Spanish
  122. Default                                  : No
  123. Forced                                   : No

  124. Text #5
  125. ID                                       : 8
  126. Format                                   : PGS
  127. Muxing mode                              : zlib
  128. Codec ID                                 : S_HDMV/PGS
  129. Codec ID/Info                            : Picture based subtitle format used on BDs/HD-DVDs
  130. Duration                                 : 1 h 32 min
  131. Bit rate                                 : 64.6 kb/s
  132. Count of elements                        : 3214
  133. Stream size                              : 42.8 MiB (0%)
  134. Title                                    : English-COMMENTARY-PGS
  135. Language                                 : English
  136. Default                                  : No
  137. Forced                                   : No

  138. Text #6
  139. ID                                       : 9
  140. Format                                   : PGS
  141. Muxing mode                              : zlib
  142. Codec ID                                 : S_HDMV/PGS
  143. Codec ID/Info                            : Picture based subtitle format used on BDs/HD-DVDs
  144. Duration                                 : 1 h 32 min
  145. Bit rate                                 : 62.3 kb/s
  146. Count of elements                        : 3262
  147. Stream size                              : 41.3 MiB (0%)
  148. Title                                    : Spanish-COMMENTARY-PGS
  149. Language                                 : Spanish
  150. Default                                  : No
  151. Forced                                   : No

  152. Menu
  153. 00:00:00.000                             : en:Chapter 1
  154. 00:07:07.343                             : en:Chapter 2
  155. 00:10:04.895                             : en:Chapter 3
  156. 00:16:43.544                             : en:Chapter 4
  157. 00:24:37.726                             : en:Chapter 5
  158. 00:30:45.301                             : en:Chapter 6
  159. 00:37:44.053                             : en:Chapter 7
  160. 00:42:38.305                             : en:Chapter 8
  161. 00:48:35.871                             : en:Chapter 9
  162. 00:54:57.294                             : en:Chapter 10
  163. 01:01:07.330                             : en:Chapter 11
  164. 01:05:55.576                             : en:Chapter 12
  165. 01:12:07.781                             : en:Chapter 13
  166. 01:19:27.012                             : en:Chapter 14
  167. 01:26:07.996                             : en:Chapter 15
  168. 01:32:03.809                             : en:Chapter 16




  169. Notes : Noone can screw things up 2 times. Be we did. Sorry about that

复制代码
复制代码
201348i0uic1liwu300qpi.png 201349fcarj363ce5czr76.png 201350nttytys4rb4u5t64.png 201351t7scc5g2r5wop58w.png 201353cwxss00n7wwgg7nl.png 201354o5ui6xplkl63h16w.png





回复

使用道具 举报

蓝光币
60
发表于 2018-9-13 22:31:52 | 显示全部楼层
我要回复啊 回复有分赚啊!!!!!好片啊安洁莉娜好性感 穿皮衣最爽
回复

使用道具 举报

蓝光币
33
发表于 2019-12-31 17:11:18 | 显示全部楼层
朱莉的这个电影不错
回复

使用道具 举报

蓝光币
13
发表于 2023-11-19 12:35:03 来自手机 | 显示全部楼层
电影不错
回复

使用道具 举报

蓝光币
1
发表于 2024-6-11 08:25:44 | 显示全部楼层
特工绍特女主角非常性感!
回复

使用道具 举报

懒得打字嘛,点击右侧快捷回复 【右侧内容,后台自定义】
您需要登录后才可以回帖 登录 | 立即加入

本版积分规则

Archiver| |网站地图

Copyright © 2024 Comsenz Inc. Powered by 蓝光电影网

本站内容由用户自主分享和转载自互联网,转载目的在于传递更多信息,并不代表本网赞同其观点和对其真实性负责。

如有侵权、违反国家法律政策行为,请联系我们,我们会第一时间及时清除和处理!

举报反馈邮箱:4k1080.com@gmail.com

快速回复 返回顶部 返回列表