找回密码

查看: 2759|回复: 2

[剧情] 人类之子/绝种浩劫 Children.of.Men.2006.1080p.BluRay.x264-LiBRARiANS 11.33GB

[复制链接]
蓝光币
1971
发表于 2017-12-20 19:25:41 | 显示全部楼层 |阅读模式
212323s06fv6ot6fy0fl00.jpg
◎译  名 人类之子/绝种浩劫/末代浩劫/硕果仅存
◎片  名 Children of Men
◎年  代 2006
◎产  地 美国/英国
◎类  别 剧情/科幻/冒险/灾难
◎语  言 英语/德语/意大利语/罗马尼亚语/西班牙语/阿拉伯语
◎上映日期 2006-09-22(英国)
◎IMDb评分  7.9/10 from 396,043 users
◎IMDb链接  http://www.imdb.com/title/tt0206634/
◎豆瓣评分 7.5/10 from 37,515 users
◎豆瓣链接 https://movie.douban.com/subject/1478064/
◎片  长 109 分钟
◎导  演 阿方索·卡隆 Alfonso Cuarón
◎主  演 克里夫·欧文 Clive Owen
      朱丽安·摩尔 Julianne Moore
      迈克尔·凯恩 Michael Caine
      克莱尔-霍普·阿什蒂 Claire-Hope Ashitey
      查理·汉纳姆 Charlie Hunnam
      帕姆·费里斯 Pam Ferris
      切瓦特·埃加福特 Chiwetel Ejiofor

◎简  介

  20年后的人类社会,正面临着史无前例的没顶之险——一切的人类都损失了生育才能,而东欧和非洲国家已经四分五裂,生齿向英国等敷裕国家大量迁移。
  但是在英国境内,人们正堕入一片紊乱和发急中。大家都为天下末日的到来而焦躁狞恶。非洲女孩肯(克莱尔-霍普?阿什提 Claire-Hope Ashitey饰)不法移民到这个国家,但使人奋发的是她腹中居然怀有孩子。为了保住人类唯一的血脉,差人蒂奥(克里夫?欧文 Clive Owen 饰)和前妻朱丽(朱丽安?摩尔 Julianne Moore 饰)决议不惜一切价格将肯平安离境,但枪林弹雨却失他们寸步难行。
  在流亡中,婴儿诞生在了一个栖流所里。刀枪当前,保住人类最初的希望,成为蒂奥心中唯一的信心。

◎获奖情况

  第79届奥斯卡金像奖  (2007)
  最好改编剧本(提名) 阿方索·卡隆 / 蒂莫西·J·塞克斯顿 / 大卫·阿莱塔 / 马克·弗格斯 / 霍克·奥斯比
  最好剪辑(提名) 阿方索·卡隆 / Alex Rodríguez
  最好摄影(提名) 艾曼努尔·卢贝兹基

  第63届威尼斯电影节  (2006)
  主比赛单元 金狮奖 (提名) 阿方索·卡隆
  金奥赛拉奖 精采技术进献奖 艾曼努尔·卢贝兹基


  1. Video
  2. ID                                       : 1
  3. Format                                   : AVC
  4. Format/Info                              : Advanced Video Codec
  5. Format profile                           : [url=mailto:High@L4.1]High@L4.1[/url]
  6. Format settings, CABAC                   : Yes
  7. Format settings, ReFrames                : 4 frames
  8. Codec ID                                 : V_MPEG4/ISO/AVC
  9. Duration                                 : 1h 49mn
  10. Bit rate                                 : 13.2 Mbps
  11. Width                                    : 1 920 pixels
  12. Height                                   : 1 040 pixels
  13. Display aspect ratio                     : 1.85:1
  14. Frame rate mode                          : Constant
  15. Frame rate                               : 23.976 (24000/1001) fps
  16. Color space                              : YUV
  17. Chroma subsampling                       : 4:2:0
  18. Bit depth                                : 8 bits
  19. Scan type                                : Progressive
  20. Bits/(Pixel*Frame)                       : 0.276
  21. Stream size                              : 10.1GB (89%)
  22. Writing library                          : x264 core 148 r2744 b97ae06
  23. Encoding settings                        : cabac=1 / ref=4 / deblock=1:-3:-3 / analyse=0x3:0x133 / me=umh / subme=9 / psy=1 / psy_rd=1.00:0.25 / mixed_ref=1 / me_range=24 / chroma_me=1 / trellis=2 / 8x8dct=1 / cqm=0 / deadzone=21,11 / fast_pskip=1 / chroma_qp_offset=-4 / threads=24 / lookahead_threads=2 / sliced_threads=0 / nr=0 / decimate=1 / interlaced=0 / bluray_compat=0 / constrained_intra=0 / bframes=3 / b_pyramid=2 / b_adapt=2 / b_bias=0 / direct=3 / weightb=1 / open_gop=0 / weightp=2 / keyint=240 / keyint_min=24 / scenecut=40 / intra_refresh=0 / rc_lookahead=60 / rc=crf / mbtree=1 / crf=18.0 / qcomp=0.60 / qpmin=0 / qpmax=69 / qpstep=4 / ip_ratio=1.40 / aq=1:0.75
  24. Default                                  : Yes
  25. Forced                                   : No

  26. Audio
  27. ID                                       : 2
  28. Format                                   : DTS
  29. Format/Info                              : Digital Theater Systems
  30. Mode                                     : 16
  31. Format settings, Endianness              : Big
  32. Codec ID                                 : A_DTS
  33. Duration                                 : 1h 49mn
  34. Bit rate mode                            : Constant
  35. Bit rate                                 : 1 509 Kbps
  36. Channel(s)                               : 6 channels
  37. Channel positions                        : Front: L C R, Side: L R, LFE
  38. Sampling rate                            : 48.0 KHz
  39. Frame rate                               : 93.750 fps (512 spf)
  40. Bit depth                                : 24 bits
  41. Compression mode                         : Lossy
  42. Stream size                              : 1.15GB (10%)
  43. Language                                 : English
  44. Default                                  : Yes
  45. Forced                                   : No

  46. Text #1
  47. ID                                       : 3
  48. Format                                   : UTF-8
  49. Codec ID                                 : S_TEXT/UTF8
  50. Codec ID/Info                            : UTF-8 Plain Text
  51. Duration                                 : 1h 39mn
  52. Bit rate                                 : 53 bps
  53. Count of elements                        : 1263
  54. Stream size                              : 38.9 KiB (0%)
  55. Language                                 : English
  56. Default                                  : No
  57. Forced                                   : No

  58. Text #2
  59. ID                                       : 4
  60. Format                                   : UTF-8
  61. Codec ID                                 : S_TEXT/UTF8
  62. Codec ID/Info                            : UTF-8 Plain Text
  63. Duration                                 : 1h 39mn
  64. Bit rate                                 : 57 bps
  65. Count of elements                        : 1358
  66. Stream size                              : 42.4 KiB (0%)
  67. Title                                    : SDH
  68. Language                                 : English
  69. Default                                  : No
  70. Forced                                   : No

  71. Text #3
  72. ID                                       : 5
  73. Format                                   : PGS
  74. Muxing mode                              : zlib
  75. Codec ID                                 : S_HDMV/PGS
  76. Codec ID/Info                            : Picture based subtitle format used on BDs/HD-DVDs
  77. Duration                                 : 1h 39mn
  78. Bit rate                                 : 11.3 Kbps
  79. Count of elements                        : 2719
  80. Stream size                              : 8.09 MiB (0%)
  81. Language                                 : English
  82. Default                                  : No
  83. Forced                                   : No

  84. Text #4
  85. ID                                       : 6
  86. Format                                   : PGS
  87. Muxing mode                              : zlib
  88. Codec ID                                 : S_HDMV/PGS
  89. Codec ID/Info                            : Picture based subtitle format used on BDs/HD-DVDs
  90. Duration                                 : 1h 39mn
  91. Bit rate                                 : 9 262 bps
  92. Count of elements                        : 2349
  93. Stream size                              : 6.59 MiB (0%)
  94. Language                                 : Spanish
  95. Default                                  : No
  96. Forced                                   : No

  97. Text #5
  98. ID                                       : 7
  99. Format                                   : PGS
  100. Muxing mode                              : zlib
  101. Codec ID                                 : S_HDMV/PGS
  102. Codec ID/Info                            : Picture based subtitle format used on BDs/HD-DVDs
  103. Duration                                 : 1h 48mn
  104. Bit rate                                 : 8 186 bps
  105. Count of elements                        : 2383
  106. Stream size                              : 6.36 MiB (0%)
  107. Language                                 : French
  108. Default                                  : No
  109. Forced                                   : No

  110. Text #6
  111. ID                                       : 8
  112. Format                                   : PGS
  113. Muxing mode                              : zlib
  114. Codec ID                                 : S_HDMV/PGS
  115. Codec ID/Info                            : Picture based subtitle format used on BDs/HD-DVDs
  116. Duration                                 : 1h 48mn
  117. Bit rate                                 : 9 997 bps
  118. Count of elements                        : 2377
  119. Stream size                              : 7.77 MiB (0%)
  120. Language                                 : German
  121. Default                                  : No
  122. Forced                                   : No

  123. Text #7
  124. ID                                       : 9
  125. Format                                   : PGS
  126. Muxing mode                              : zlib
  127. Codec ID                                 : S_HDMV/PGS
  128. Codec ID/Info                            : Picture based subtitle format used on BDs/HD-DVDs
  129. Duration                                 : 1h 48mn
  130. Bit rate                                 : 8 747 bps
  131. Count of elements                        : 2381
  132. Stream size                              : 6.80 MiB (0%)
  133. Language                                 : Italian
  134. Default                                  : No
  135. Forced                                   : No

  136. Text #8
  137. ID                                       : 10
  138. Format                                   : PGS
  139. Muxing mode                              : zlib
  140. Codec ID                                 : S_HDMV/PGS
  141. Codec ID/Info                            : Picture based subtitle format used on BDs/HD-DVDs
  142. Duration                                 : 1h 48mn
  143. Bit rate                                 : 8 147 bps
  144. Count of elements                        : 2383
  145. Stream size                              : 6.33 MiB (0%)
  146. Language                                 : Spanish
  147. Default                                  : No
  148. Forced                                   : No

  149. Text #9
  150. ID                                       : 11
  151. Format                                   : PGS
  152. Muxing mode                              : zlib
  153. Codec ID                                 : S_HDMV/PGS
  154. Codec ID/Info                            : Picture based subtitle format used on BDs/HD-DVDs
  155. Duration                                 : 1h 48mn
  156. Bit rate                                 : 7 866 bps
  157. Count of elements                        : 2387
  158. Stream size                              : 6.11 MiB (0%)
  159. Language                                 : Dutch
  160. Default                                  : No
  161. Forced                                   : No

  162. Text #10
  163. ID                                       : 12
  164. Format                                   : PGS
  165. Muxing mode                              : zlib
  166. Codec ID                                 : S_HDMV/PGS
  167. Codec ID/Info                            : Picture based subtitle format used on BDs/HD-DVDs
  168. Duration                                 : 1h 48mn
  169. Bit rate                                 : 9 137 bps
  170. Count of elements                        : 2389
  171. Stream size                              : 7.10 MiB (0%)
  172. Language                                 : Portuguese
  173. Default                                  : No
  174. Forced                                   : No

  175. Text #11
  176. ID                                       : 13
  177. Format                                   : PGS
  178. Muxing mode                              : zlib
  179. Codec ID                                 : S_HDMV/PGS
  180. Codec ID/Info                            : Picture based subtitle format used on BDs/HD-DVDs
  181. Duration                                 : 1h 48mn
  182. Bit rate                                 : 8 910 bps
  183. Count of elements                        : 2401
  184. Stream size                              : 6.93 MiB (0%)
  185. Language                                 : Greek
  186. Default                                  : No
  187. Forced                                   : No

  188. Text #12
  189. ID                                       : 14
  190. Format                                   : PGS
  191. Muxing mode                              : zlib
  192. Codec ID                                 : S_HDMV/PGS
  193. Codec ID/Info                            : Picture based subtitle format used on BDs/HD-DVDs
  194. Duration                                 : 1h 48mn
  195. Bit rate                                 : 5 825 bps
  196. Count of elements                        : 2399
  197. Stream size                              : 4.53 MiB (0%)
  198. Language                                 : Korean
  199. Default                                  : No
  200. Forced                                   : No

  201. Text #13
  202. ID                                       : 15
  203. Format                                   : PGS
  204. Muxing mode                              : zlib
  205. Codec ID                                 : S_HDMV/PGS
  206. Codec ID/Info                            : Picture based subtitle format used on BDs/HD-DVDs
  207. Duration                                 : 1h 48mn
  208. Bit rate                                 : 11.2 Kbps
  209. Count of elements                        : 2413
  210. Stream size                              : 8.70 MiB (0%)
  211. Language                                 : Chinese
  212. Default                                  : No
  213. Forced                                   : No

  214. Menu
  215. 00:00:00.000                             : en:00:00:00.000
  216. 00:07:17.896                             : en:00:07:17.896
  217. 00:11:02.662                             : en:00:11:02.662
  218. 00:16:44.670                             : en:00:16:44.670
  219. 00:21:07.975                             : en:00:21:07.975
  220. 00:25:53.135                             : en:00:25:53.135
  221. 00:30:20.986                             : en:00:30:20.986
  222. 00:37:27.078                             : en:00:37:27.078
  223. 00:42:37.889                             : en:00:42:37.889
  224. 00:47:31.515                             : en:00:47:31.515
  225. 00:55:28.408                             : en:00:55:28.408
  226. 01:00:23.662                             : en:01:00:23.662
  227. 01:07:08.441                             : en:01:07:08.441
  228. 01:11:53.226                             : en:01:11:53.226
  229. 01:16:26.707                             : en:01:16:26.707
  230. 01:21:21.627                             : en:01:21:21.627
  231. 01:23:50.609                             : en:01:23:50.609
  232. 01:31:26.564                             : en:01:31:26.564
  233. 01:34:48.600                             : en:01:34:48.600
  234. 01:40:18.387                             : en:01:40:18.387


复制代码
复制代码
212324z9if36ciu85z22yi.jpg






回复

使用道具 举报

懒得打字嘛,点击右侧快捷回复 【右侧内容,后台自定义】
您需要登录后才可以回帖 登录 | 立即加入

本版积分规则

Archiver| |网站地图

Copyright © 2024 Comsenz Inc. Powered by 蓝光电影网

本站内容由用户自主分享和转载自互联网,转载目的在于传递更多信息,并不代表本网赞同其观点和对其真实性负责。

如有侵权、违反国家法律政策行为,请联系我们,我们会第一时间及时清除和处理!

举报反馈邮箱:4k1080.com@gmail.com

快速回复 返回顶部 返回列表