找回密码

查看: 2675|回复: 2

[剧情] 复活/复活战士 Risen.2016.1080p.BluRay.x264.TrueHD.7.1.Atmos-SWTYBLZ 11.44GB

[复制链接]
蓝光币
1982
发表于 2017-12-20 19:29:03 | 显示全部楼层 |阅读模式
002407e3eu0eu5lulsh13f.jpg
◎译  名 新生/新生战士
◎片  名 Risen
◎年  代 2016
◎产  地 美国
◎类  别 剧情/行动/悬疑/冒险
◎语  言 英语
◎上映日期 2016-02-19(美国)
◎IMDb评分  6.3/10 from 19,514 users
◎IMDb链接  http://www.imdb.com/title/tt3231054/
◎豆瓣评分 5.9/10 from 971 users
◎豆瓣链接 https://movie.douban.com/subject/25755444/
◎片  长 107分钟
◎导  演 凯文·雷诺兹 Kevin Reynolds
◎主  演 约瑟夫·费因斯 Joseph Fiennes
      汤姆·费尔顿 Tom Felton
      彼得·弗斯 Peter Firth
      克利夫·柯蒂斯 Cliff Curtis
      斯图尔特·斯卡德莫尔 Stewart Scudamore
      玛丽亚·博托 María Botto
      马克·基林 Mark Killeen
      蕾欧诺·瓦特林 Leonor Watling
      扬·科奈特 Jan Cornet
      斯蒂芬·哈根 Stephen Hagan
      亚历克斯·马朗尼 àlex Maruny
      斯蒂芬·格里夫 Stephen Greif

◎简  介

  不成知论百夫长观察耶稣尸身失落一案,当他发现耶稣新生,信心蒙受考验。


  1. Video
  2. ID                                       : 1
  3. Format                                   : AVC
  4. Format/Info                              : Advanced Video Codec
  5. Format profile                           : [url=mailto:High@L4.1]High@L4.1[/url]
  6. Format settings                          : CABAC / 5 Ref Frames
  7. Format settings, CABAC                   : Yes
  8. Format settings, ReFrames                : 5 frames
  9. Codec ID                                 : V_MPEG4/ISO/AVC
  10. Duration                                 : 1 h 47 min
  11. Bit rate                                 : 10.1 Mb/s
  12. Width                                    : 1 920 pixels
  13. Height                                   : 800 pixels
  14. Display aspect ratio                     : 2.40:1
  15. Frame rate mode                          : Constant
  16. Frame rate                               : 23.976 (24000/1001) FPS
  17. Color space                              : YUV
  18. Chroma subsampling                       : 4:2:0
  19. Bit depth                                : 8 bits
  20. Scan type                                : Progressive
  21. Bits/(Pixel*Frame)                       : 0.275
  22. Stream size                              : 7.61GB (67%)
  23. Title                                    : Risen.2016.1080p.BluRay.x264.TrueHD.7.1.Atmos-SWTYBLZ
  24. Writing library                          : x264 core 148 r2665 a01e339
  25. Encoding settings                        : cabac=1 / ref=5 / deblock=1:0:0 / analyse=0x3:0x113 / me=umh / subme=8 / psy=1 / psy_rd=1.00:0.00 / mixed_ref=1 / me_range=16 / chroma_me=1 / trellis=1 / 8x8dct=1 / cqm=0 / deadzone=21,11 / fast_pskip=0 / chroma_qp_offset=-2 / threads=24 / lookahead_threads=4 / sliced_threads=0 / nr=0 / decimate=1 / interlaced=0 / bluray_compat=0 / constrained_intra=0 / bframes=3 / b_pyramid=2 / b_adapt=2 / b_bias=0 / direct=3 / weightb=1 / open_gop=0 / weightp=2 / keyint=250 / keyint_min=23 / scenecut=40 / intra_refresh=0 / rc_lookahead=50 / rc=2pass / mbtree=1 / bitrate=10126 / ratetol=1.0 / qcomp=0.60 / qpmin=0 / qpmax=69 / qpstep=4 / cplxblur=20.0 / qblur=0.5 / ip_ratio=1.40 / aq=1:1.00
  26. Language                                 : English
  27. Default                                  : Yes
  28. Forced                                   : No

  29. Audio #1
  30. ID                                       : 2
  31. Format                                   : TrueHD
  32. Format profile                           : TrueHD+Atmos / TrueHD
  33. Codec ID                                 : A_TRUEHD
  34. Duration                                 : 1 h 47 min
  35. Bit rate mode                            : Variable
  36. Bit rate                                 : 4 249 kb/s
  37. Maximum bit rate                         : 7 500 kb/s
  38. Channel(s)                               : Object Based / 8 channels
  39. Channel positions                        : Object Based / Front: L C R, Side: L R, Back: L R, LFE
  40. Sampling rate                            :  / 48.0 kHz
  41. Frame rate                               : 1 200.000 FPS (40 SPF)
  42. Compression mode                         : Lossless
  43. Stream size                              : 3.19GB (28%)
  44. Title                                    : Risen.2016.1080p.BluRay.x264.TrueHD.7.1.Atmos-SWTYBLZ
  45. Language                                 : English
  46. Default                                  : Yes
  47. Forced                                   : No

  48. Audio #2
  49. ID                                       : 3
  50. Format                                   : AC-3
  51. Format/Info                              : Audio Coding 3
  52. Codec ID                                 : A_AC3
  53. Duration                                 : 1 h 47 min
  54. Bit rate mode                            : Constant
  55. Bit rate                                 : 640 kb/s
  56. Channel(s)                               : 6 channels
  57. Channel positions                        : Front: L C R, Side: L R, LFE
  58. Sampling rate                            : 48.0 kHz
  59. Frame rate                               : 31.250 FPS (1536 SPF)
  60. Bit depth                                : 16 bits
  61. Compression mode                         : Lossy
  62. Stream size                              : 493 MiB (4%)
  63. Title                                    : Risen.2016.1080p.BluRay.x264.TrueHD.7.1.Atmos-SWTYBLZ
  64. Language                                 : English
  65. Service kind                             : Complete Main
  66. Default                                  : No
  67. Forced                                   : No

  68. Text #1
  69. ID                                       : 4
  70. Format                                   : UTF-8
  71. Codec ID                                 : S_TEXT/UTF8
  72. Codec ID/Info                            : UTF-8 Plain Text
  73. Duration                                 : 1 h 36 min
  74. Bit rate                                 : 37 b/s
  75. Count of elements                        : 1004
  76. Stream size                              : 26.6 KiB (0%)
  77. Title                                    : English-SRT
  78. Language                                 : English
  79. Default                                  : Yes
  80. Forced                                   : No

  81. Text #2
  82. ID                                       : 5
  83. Format                                   : UTF-8
  84. Codec ID                                 : S_TEXT/UTF8
  85. Codec ID/Info                            : UTF-8 Plain Text
  86. Duration                                 : 1 h 38 min
  87. Bit rate                                 : 44 b/s
  88. Count of elements                        : 1237
  89. Stream size                              : 31.8 KiB (0%)
  90. Title                                    : English-SDH-SRT
  91. Language                                 : English
  92. Default                                  : No
  93. Forced                                   : No

  94. Text #3
  95. ID                                       : 6
  96. Format                                   : PGS
  97. Muxing mode                              : zlib
  98. Codec ID                                 : S_HDMV/PGS
  99. Codec ID/Info                            : Picture based subtitle format used on BDs/HD-DVDs
  100. Duration                                 : 1 h 36 min
  101. Bit rate                                 : 24.0 kb/s
  102. Count of elements                        : 1977
  103. Stream size                              : 16.6 MiB (0%)
  104. Title                                    : English-PGS
  105. Language                                 : English
  106. Default                                  : No
  107. Forced                                   : No

  108. Text #4
  109. ID                                       : 7
  110. Format                                   : PGS
  111. Muxing mode                              : zlib
  112. Codec ID                                 : S_HDMV/PGS
  113. Codec ID/Info                            : Picture based subtitle format used on BDs/HD-DVDs
  114. Duration                                 : 1 h 36 min
  115. Bit rate                                 : 24.0 kb/s
  116. Count of elements                        : 1977
  117. Stream size                              : 16.6 MiB (0%)
  118. Title                                    : English-SDH-PGS
  119. Language                                 : English
  120. Default                                  : No
  121. Forced                                   : No

  122. Text #5
  123. ID                                       : 8
  124. Format                                   : PGS
  125. Muxing mode                              : zlib
  126. Codec ID                                 : S_HDMV/PGS
  127. Codec ID/Info                            : Picture based subtitle format used on BDs/HD-DVDs
  128. Duration                                 : 1 h 46 min
  129. Bit rate                                 : 11.5 kb/s
  130. Count of elements                        : 1978
  131. Stream size                              : 8.72 MiB (0%)
  132. Title                                    : Arabic-PGS
  133. Language                                 : Arabic
  134. Default                                  : No
  135. Forced                                   : No

  136. Text #6
  137. ID                                       : 9
  138. Format                                   : PGS
  139. Muxing mode                              : zlib
  140. Codec ID                                 : S_HDMV/PGS
  141. Codec ID/Info                            : Picture based subtitle format used on BDs/HD-DVDs
  142. Duration                                 : 1 h 37 min
  143. Bit rate                                 : 21.3 kb/s
  144. Count of elements                        : 1981
  145. Stream size                              : 14.9 MiB (0%)
  146. Title                                    : Chinese-PGS
  147. Language                                 : Chinese
  148. Default                                  : No
  149. Forced                                   : No

  150. Text #7
  151. ID                                       : 10
  152. Format                                   : PGS
  153. Muxing mode                              : zlib
  154. Codec ID                                 : S_HDMV/PGS
  155. Codec ID/Info                            : Picture based subtitle format used on BDs/HD-DVDs
  156. Duration                                 : 1 h 37 min
  157. Bit rate                                 : 20.9 kb/s
  158. Count of elements                        : 1981
  159. Stream size                              : 14.6 MiB (0%)
  160. Title                                    : Chinese-PGS
  161. Language                                 : Chinese
  162. Default                                  : No
  163. Forced                                   : No

  164. Text #8
  165. ID                                       : 11
  166. Format                                   : PGS
  167. Muxing mode                              : zlib
  168. Codec ID                                 : S_HDMV/PGS
  169. Codec ID/Info                            : Picture based subtitle format used on BDs/HD-DVDs
  170. Duration                                 : 1 h 37 min
  171. Bit rate                                 : 24.7 kb/s
  172. Count of elements                        : 1981
  173. Stream size                              : 17.2 MiB (0%)
  174. Title                                    : Danish-PGS
  175. Language                                 : Danish
  176. Default                                  : No
  177. Forced                                   : No

  178. Text #9
  179. ID                                       : 12
  180. Format                                   : PGS
  181. Muxing mode                              : zlib
  182. Codec ID                                 : S_HDMV/PGS
  183. Codec ID/Info                            : Picture based subtitle format used on BDs/HD-DVDs
  184. Duration                                 : 1 h 37 min
  185. Bit rate                                 : 23.3 kb/s
  186. Count of elements                        : 1690
  187. Stream size                              : 16.2 MiB (0%)
  188. Title                                    : Dutch-PGS
  189. Language                                 : Dutch
  190. Default                                  : No
  191. Forced                                   : No

  192. Text #10
  193. ID                                       : 13
  194. Format                                   : PGS
  195. Muxing mode                              : zlib
  196. Codec ID                                 : S_HDMV/PGS
  197. Codec ID/Info                            : Picture based subtitle format used on BDs/HD-DVDs
  198. Duration                                 : 1 h 37 min
  199. Bit rate                                 : 23.2 kb/s
  200. Count of elements                        : 1979
  201. Stream size                              : 16.1 MiB (0%)
  202. Title                                    : Finnish-PGS
  203. Language                                 : Finnish
  204. Default                                  : No
  205. Forced                                   : No

  206. Text #11
  207. ID                                       : 14
  208. Format                                   : PGS
  209. Muxing mode                              : zlib
  210. Codec ID                                 : S_HDMV/PGS
  211. Codec ID/Info                            : Picture based subtitle format used on BDs/HD-DVDs
  212. Duration                                 : 1 h 45 min
  213. Bit rate                                 : 20.2 kb/s
  214. Count of elements                        : 1981
  215. Stream size                              : 15.2 MiB (0%)
  216. Title                                    : French-PGS
  217. Language                                 : French
  218. Default                                  : No
  219. Forced                                   : No

  220. Text #12
  221. ID                                       : 15
  222. Format                                   : PGS
  223. Muxing mode                              : zlib
  224. Codec ID                                 : S_HDMV/PGS
  225. Codec ID/Info                            : Picture based subtitle format used on BDs/HD-DVDs
  226. Duration                                 : 1 h 37 min
  227. Bit rate                                 : 27.5 kb/s
  228. Count of elements                        : 1985
  229. Stream size                              : 19.1 MiB (0%)
  230. Title                                    : German-PGS
  231. Language                                 : German
  232. Default                                  : No
  233. Forced                                   : No

  234. Text #13
  235. ID                                       : 16
  236. Format                                   : PGS
  237. Muxing mode                              : zlib
  238. Codec ID                                 : S_HDMV/PGS
  239. Codec ID/Info                            : Picture based subtitle format used on BDs/HD-DVDs
  240. Duration                                 : 1 h 46 min
  241. Bit rate                                 : 22.0 kb/s
  242. Count of elements                        : 1849
  243. Stream size                              : 16.7 MiB (0%)
  244. Title                                    : Italian-PGS
  245. Language                                 : Italian
  246. Default                                  : No
  247. Forced                                   : No

  248. Text #14
  249. ID                                       : 17
  250. Format                                   : PGS
  251. Muxing mode                              : zlib
  252. Codec ID                                 : S_HDMV/PGS
  253. Codec ID/Info                            : Picture based subtitle format used on BDs/HD-DVDs
  254. Duration                                 : 1 h 37 min
  255. Bit rate                                 : 18.4 kb/s
  256. Count of elements                        : 2105
  257. Stream size                              : 12.8 MiB (0%)
  258. Title                                    : Japanese-PGS
  259. Language                                 : Japanese
  260. Default                                  : No
  261. Forced                                   : No

  262. Text #15
  263. ID                                       : 18
  264. Format                                   : PGS
  265. Muxing mode                              : zlib
  266. Codec ID                                 : S_HDMV/PGS
  267. Codec ID/Info                            : Picture based subtitle format used on BDs/HD-DVDs
  268. Duration                                 : 1 h 46 min
  269. Bit rate                                 : 13.8 kb/s
  270. Count of elements                        : 1935
  271. Stream size                              : 10.4 MiB (0%)
  272. Title                                    : Korean-PGS
  273. Language                                 : Korean
  274. Default                                  : No
  275. Forced                                   : No

  276. Text #16
  277. ID                                       : 19
  278. Format                                   : PGS
  279. Muxing mode                              : zlib
  280. Codec ID                                 : S_HDMV/PGS
  281. Codec ID/Info                            : Picture based subtitle format used on BDs/HD-DVDs
  282. Duration                                 : 1 h 45 min
  283. Bit rate                                 : 19.8 kb/s
  284. Count of elements                        : 1872
  285. Stream size                              : 14.9 MiB (0%)
  286. Title                                    : Norwegian-PGS
  287. Language                                 : Norwegian
  288. Default                                  : No
  289. Forced                                   : No

  290. Text #17
  291. ID                                       : 20
  292. Format                                   : PGS
  293. Muxing mode                              : zlib
  294. Codec ID                                 : S_HDMV/PGS
  295. Codec ID/Info                            : Picture based subtitle format used on BDs/HD-DVDs
  296. Duration                                 : 1 h 46 min
  297. Bit rate                                 : 20.1 kb/s
  298. Count of elements                        : 1924
  299. Stream size                              : 15.3 MiB (0%)
  300. Title                                    : Portuguese-PGS
  301. Language                                 : Portuguese
  302. Default                                  : No
  303. Forced                                   : No

  304. Text #18
  305. ID                                       : 21
  306. Format                                   : PGS
  307. Muxing mode                              : zlib
  308. Codec ID                                 : S_HDMV/PGS
  309. Codec ID/Info                            : Picture based subtitle format used on BDs/HD-DVDs
  310. Duration                                 : 1 h 46 min
  311. Bit rate                                 : 22.5 kb/s
  312. Count of elements                        : 1998
  313. Stream size                              : 17.0 MiB (0%)
  314. Title                                    : Spanish-PGS
  315. Language                                 : Spanish
  316. Default                                  : No
  317. Forced                                   : No

  318. Text #19
  319. ID                                       : 22
  320. Format                                   : PGS
  321. Muxing mode                              : zlib
  322. Codec ID                                 : S_HDMV/PGS
  323. Codec ID/Info                            : Picture based subtitle format used on BDs/HD-DVDs
  324. Duration                                 : 1 h 46 min
  325. Bit rate                                 : 22.0 kb/s
  326. Count of elements                        : 1925
  327. Stream size                              : 16.7 MiB (0%)
  328. Title                                    : Spanish-PGS
  329. Language                                 : Spanish
  330. Default                                  : No
  331. Forced                                   : No

  332. Text #20
  333. ID                                       : 23
  334. Format                                   : PGS
  335. Muxing mode                              : zlib
  336. Codec ID                                 : S_HDMV/PGS
  337. Codec ID/Info                            : Picture based subtitle format used on BDs/HD-DVDs
  338. Duration                                 : 1 h 45 min
  339. Bit rate                                 : 22.1 kb/s
  340. Count of elements                        : 1983
  341. Stream size                              : 16.7 MiB (0%)
  342. Title                                    : Swedish-PGS
  343. Language                                 : Swedish
  344. Default                                  : No
  345. Forced                                   : No

  346. Text #21
  347. ID                                       : 24
  348. Format                                   : PGS
  349. Muxing mode                              : zlib
  350. Codec ID                                 : S_HDMV/PGS
  351. Codec ID/Info                            : Picture based subtitle format used on BDs/HD-DVDs
  352. Duration                                 : 1 h 46 min
  353. Bit rate                                 : 19.1 kb/s
  354. Count of elements                        : 1931
  355. Stream size                              : 14.5 MiB (0%)
  356. Title                                    : Thai-PGS
  357. Language                                 : Thai
  358. Default                                  : No
  359. Forced                                   : No

  360. Text #22
  361. ID                                       : 25
  362. Format                                   : PGS
  363. Muxing mode                              : zlib
  364. Codec ID                                 : S_HDMV/PGS
  365. Codec ID/Info                            : Picture based subtitle format used on BDs/HD-DVDs
  366. Duration                                 : 1 h 37 min
  367. Bit rate                                 : 25.0 kb/s
  368. Count of elements                        : 1981
  369. Stream size                              : 17.5 MiB (0%)
  370. Title                                    : Turkish-PGS
  371. Language                                 : Turkish
  372. Default                                  : No
  373. Forced                                   : No

  374. Text #23
  375. ID                                       : 26
  376. Format                                   : PGS
  377. Muxing mode                              : zlib
  378. Codec ID                                 : S_HDMV/PGS
  379. Codec ID/Info                            : Picture based subtitle format used on BDs/HD-DVDs
  380. Duration                                 : 11 min 59 s
  381. Bit rate                                 : 582 b/s
  382. Count of elements                        : 6
  383. Stream size                              : 51.1 KiB (0%)
  384. Title                                    : Japanese-PGS
  385. Language                                 : Japanese
  386. Default                                  : No
  387. Forced                                   : No

  388. Menu
  389. 00:00:00.000                             : en:Chapter 1
  390. 00:06:50.243                             : en:Chapter 2
  391. 00:14:18.732                             : en:Chapter 3
  392. 00:21:48.181                             : en:Chapter 4
  393. 00:27:35.195                             : en:Chapter 5
  394. 00:33:21.082                             : en:Chapter 6
  395. 00:40:03.984                             : en:Chapter 7
  396. 00:46:19.193                             : en:Chapter 8
  397. 00:54:06.243                             : en:Chapter 9
  398. 01:00:06.477                             : en:Chapter 10
  399. 01:07:53.027                             : en:Chapter 11
  400. 01:13:54.847                             : en:Chapter 12
  401. 01:19:46.656                             : en:Chapter 13
  402. 01:25:42.387                             : en:Chapter 14
  403. 01:33:16.132                             : en:Chapter 15
  404. 01:38:41.832                             : en:Chapter 16



复制代码
复制代码
002408n1g46mkkvv4249kk.png 002410z26c0366b26j3oz6.png 002411u1v3gvsdvvq3z3dg.png 002412wyfykh5y1y1xfk5k.png 002412de09a7gahkn1xnje.png 002414cvfof0ok5fwkofoz.png





相关帖子

回复

使用道具 举报

蓝光币
821
发表于 2017-12-28 09:49:16 | 显示全部楼层
不错哦,这个记录
回复

使用道具 举报

蓝光币
526
发表于 2021-11-17 16:09:04 | 显示全部楼层
哇,这个好像很不错噢.
回复

使用道具 举报

懒得打字嘛,点击右侧快捷回复 【右侧内容,后台自定义】
您需要登录后才可以回帖 登录 | 立即加入

本版积分规则

Archiver| |网站地图

Copyright © 2024 Comsenz Inc. Powered by 蓝光电影网

本站内容由用户自主分享和转载自互联网,转载目的在于传递更多信息,并不代表本网赞同其观点和对其真实性负责。

如有侵权、违反国家法律政策行为,请联系我们,我们会第一时间及时清除和处理!

举报反馈邮箱:4k1080.com@gmail.com

快速回复 返回顶部 返回列表