找回密码

查看: 2961|回复: 2

[剧情] 灵异空间/别闯阴阳界 Flatliners.2017.1080p.BluRay.x264.DTS-HD.MA.5.1-FGT 8.63GB

[复制链接]
蓝光币
1984
发表于 2017-12-20 19:54:39 | 显示全部楼层 |阅读模式
065723b7u0iq4qqiaqlhh7.jpg
◎译  名 灵异空间/别闯阴阳界/脉搏探测器
◎片  名 Flatliners
◎年  代 2017
◎产  地 美国
◎类  别 剧情/科幻/惊悚
◎语  言 英语
◎上映日期 2017-09-29(美国)
◎IMDb评分  5.0/10 from 9,362 users
◎IMDb链接  http://www.imdb.com/title/tt2039338/
◎豆瓣评分 5.4/10 from 804 users
◎豆瓣链接 https://movie.douban.com/subject/26635304/
◎片  长 108分钟
◎导  演 涅尔斯·阿登·欧普勒夫 Niels Arden Oplev
◎主  演 艾伦·佩吉 Ellen Page
      迭戈·卢纳 Diego Luna
      妮娜·杜波夫 Nina Dobrev
      詹姆斯·诺顿 James Norton
      科雷西·克莱门斯 Kiersey Clemons
      基弗·萨瑟兰 Kiefer Sutherland
      麦迪逊·布里奇斯 Madison Brydges
      雅各布·索利 Jacob Soley
      安娜·阿尔丁 Anna Arden
      米格尔·安东尼 Miguel Anthony
      珍妮·雷文 Jenny Raven
      博·米尔乔夫 Beau Mirchoff
      夏洛特·麦金尼 Charlotte McKinney
      温蒂·拉奎尔·罗宾逊 Wendy Raquel Robinson
      史蒂夫·拜尔斯 Steve Byers
      泰勒·海涅斯 Tyler Hynes

◎简  介

  艾伦·佩吉(Ellen Page)正在洽商主演索尼哥伦比亚影业翻拍的1990年可骇片《灵异空间》(Flatliners),该片别名《别闯阴阳界》或《脉搏探测器》,将由瑞典版《龙纹身的女孩》导演涅尔斯·阿登·欧普勒夫(Niels Arden Oplev)执导、《源代码》(Source Code)编剧本·瑞普利(Ben Ripley)改编。
  《灵异空间》报告几个医学院的门生为了体验死后的感受停止了一项大胆的实验:他们瞬间停止心脏跳动和大脑性能,到达临床灭亡状态,然后很快规复。实验成功了,但他们始终没法忘怀那可骇的濒死体验,而且有些工具似乎也随着他们死而新生来到了阳世。


  1. Video
  2. ID                                       : 1
  3. Format                                   : AVC
  4. Format/Info                              : Advanced Video Codec
  5. Format profile                           : [url=mailto:High@L4.1]High@L4.1[/url]
  6. Format settings                          : CABAC / 5 Ref Frames
  7. Format settings, CABAC                   : Yes
  8. Format settings, ReFrames                : 5 frames
  9. Codec ID                                 : V_MPEG4/ISO/AVC
  10. Duration                                 : 1 h 49 min
  11. Bit rate                                 : 8 851 kb/s
  12. Width                                    : 1 920 pixels
  13. Height                                   : 800 pixels
  14. Display aspect ratio                     : 2.40:1
  15. Frame rate mode                          : Constant
  16. Frame rate                               : 23.976 FPS
  17. Color space                              : YUV
  18. Chroma subsampling                       : 4:2:0
  19. Bit depth                                : 8 bits
  20. Scan type                                : Progressive
  21. Bits/(Pixel*Frame)                       : 0.240
  22. Stream size                              : 6.78GB (79%)
  23. Title                                    : Flatliners.2017.1080p.BluRay.x264.DTS-HD.MA.5.1-FGT
  24. Writing library                          : x264 core 152 r2851 ba24899
  25. Encoding settings                        : cabac=1 / ref=5 / deblock=1:0:0 / analyse=0x3:0x133 / me=umh / subme=7 / psy=1 / psy_rd=1.00:0.00 / mixed_ref=1 / me_range=16 / chroma_me=1 / trellis=1 / 8x8dct=1 / cqm=0 / deadzone=21,11 / fast_pskip=0 / chroma_qp_offset=-2 / threads=25 / lookahead_threads=4 / sliced_threads=0 / nr=0 / decimate=1 / interlaced=0 / bluray_compat=0 / constrained_intra=0 / bframes=3 / b_pyramid=2 / b_adapt=1 / b_bias=0 / direct=1 / weightb=1 / open_gop=0 / weightp=2 / keyint=250 / keyint_min=23 / scenecut=40 / intra_refresh=0 / rc_lookahead=40 / rc=2pass / mbtree=1 / bitrate=8851 / ratetol=1.0 / qcomp=0.60 / qpmin=0 / qpmax=69 / qpstep=4 / cplxblur=20.0 / qblur=0.5 / ip_ratio=1.40 / aq=1:1.00
  26. Language                                 : English
  27. Default                                  : Yes
  28. Forced                                   : No

  29. Audio
  30. ID                                       : 2
  31. Format                                   : DTS
  32. Format/Info                              : Digital Theater Systems
  33. Format profile                           : MA / Core
  34. Codec ID                                 : A_DTS
  35. Duration                                 : 1 h 49 min
  36. Bit rate mode                            : Variable / Constant
  37. Bit rate                                 : 2 196 kb/s / 1 509 kb/s
  38. Channel(s)                               : 6 channels
  39. Channel positions                        : Front: L C R, Side: L R, LFE
  40. Sampling rate                            : 48.0 kHz
  41. Frame rate                               : 93.750 FPS (512 SPF)
  42. Bit depth                                : 16 bits
  43. Compression mode                         : Lossless / Lossy
  44. Stream size                              : 1.68GB (20%)
  45. Title                                    : Flatliners.2017.1080p.BluRay.x264.DTS-HD.MA.5.1-FGT
  46. Language                                 : English
  47. Default                                  : Yes
  48. Forced                                   : No

  49. Text #1
  50. ID                                       : 3
  51. Format                                   : PGS
  52. Muxing mode                              : zlib
  53. Codec ID                                 : S_HDMV/PGS
  54. Codec ID/Info                            : Picture based subtitle format used on BDs/HD-DVDs
  55. Duration                                 : 1 h 46 min
  56. Bit rate                                 : 49.1 kb/s
  57. Count of elements                        : 3400
  58. Stream size                              : 37.4 MiB (0%)
  59. Title                                    : English-PGS
  60. Language                                 : English
  61. Default                                  : No
  62. Forced                                   : No

  63. Text #2
  64. ID                                       : 4
  65. Format                                   : PGS
  66. Muxing mode                              : zlib
  67. Codec ID                                 : S_HDMV/PGS
  68. Codec ID/Info                            : Picture based subtitle format used on BDs/HD-DVDs
  69. Duration                                 : 1 h 43 min
  70. Bit rate                                 : 36.3 kb/s
  71. Count of elements                        : 2482
  72. Stream size                              : 26.9 MiB (0%)
  73. Title                                    : English-SDH-PGS
  74. Language                                 : English
  75. Default                                  : No
  76. Forced                                   : No

  77. Text #3
  78. ID                                       : 5
  79. Format                                   : PGS
  80. Muxing mode                              : zlib
  81. Codec ID                                 : S_HDMV/PGS
  82. Codec ID/Info                            : Picture based subtitle format used on BDs/HD-DVDs
  83. Duration                                 : 1 h 48 min
  84. Bit rate                                 : 24.0 kb/s
  85. Count of elements                        : 2182
  86. Stream size                              : 18.5 MiB (0%)
  87. Title                                    : Chinese-PGS
  88. Language                                 : Chinese
  89. Default                                  : No
  90. Forced                                   : No

  91. Text #4
  92. ID                                       : 6
  93. Format                                   : PGS
  94. Muxing mode                              : zlib
  95. Codec ID                                 : S_HDMV/PGS
  96. Codec ID/Info                            : Picture based subtitle format used on BDs/HD-DVDs
  97. Duration                                 : 1 h 48 min
  98. Bit rate                                 : 23.9 kb/s
  99. Count of elements                        : 2192
  100. Stream size                              : 18.5 MiB (0%)
  101. Title                                    : Chinese-PGS
  102. Language                                 : Chinese
  103. Default                                  : No
  104. Forced                                   : No

  105. Text #5
  106. ID                                       : 7
  107. Format                                   : PGS
  108. Muxing mode                              : zlib
  109. Codec ID                                 : S_HDMV/PGS
  110. Codec ID/Info                            : Picture based subtitle format used on BDs/HD-DVDs
  111. Duration                                 : 1 h 48 min
  112. Bit rate                                 : 28.1 kb/s
  113. Count of elements                        : 2526
  114. Stream size                              : 21.7 MiB (0%)
  115. Title                                    : Chinese-PGS
  116. Language                                 : Chinese
  117. Default                                  : No
  118. Forced                                   : No

  119. Text #6
  120. ID                                       : 8
  121. Format                                   : PGS
  122. Muxing mode                              : zlib
  123. Codec ID                                 : S_HDMV/PGS
  124. Codec ID/Info                            : Picture based subtitle format used on BDs/HD-DVDs
  125. Duration                                 : 1 h 48 min
  126. Bit rate                                 : 34.7 kb/s
  127. Count of elements                        : 2202
  128. Stream size                              : 26.8 MiB (0%)
  129. Title                                    : Indonesian-PGS
  130. Language                                 : Indonesian
  131. Default                                  : No
  132. Forced                                   : No

  133. Text #7
  134. ID                                       : 9
  135. Format                                   : PGS
  136. Muxing mode                              : zlib
  137. Codec ID                                 : S_HDMV/PGS
  138. Codec ID/Info                            : Picture based subtitle format used on BDs/HD-DVDs
  139. Duration                                 : 1 h 48 min
  140. Bit rate                                 : 24.9 kb/s
  141. Count of elements                        : 2524
  142. Stream size                              : 19.2 MiB (0%)
  143. Title                                    : Korean-PGS
  144. Language                                 : Korean
  145. Default                                  : No
  146. Forced                                   : No

  147. Text #8
  148. ID                                       : 10
  149. Format                                   : PGS
  150. Muxing mode                              : zlib
  151. Codec ID                                 : S_HDMV/PGS
  152. Codec ID/Info                            : Picture based subtitle format used on BDs/HD-DVDs
  153. Duration                                 : 1 h 48 min
  154. Bit rate                                 : 32.1 kb/s
  155. Count of elements                        : 2184
  156. Stream size                              : 24.8 MiB (0%)
  157. Title                                    : Malay-PGS
  158. Language                                 : Malay
  159. Default                                  : No
  160. Forced                                   : No

  161. Text #9
  162. ID                                       : 11
  163. Format                                   : PGS
  164. Muxing mode                              : zlib
  165. Codec ID                                 : S_HDMV/PGS
  166. Codec ID/Info                            : Picture based subtitle format used on BDs/HD-DVDs
  167. Duration                                 : 1 h 46 min
  168. Bit rate                                 : 34.1 kb/s
  169. Count of elements                        : 2238
  170. Stream size                              : 26.1 MiB (0%)
  171. Title                                    : Portuguese-PGS
  172. Language                                 : Portuguese
  173. Default                                  : No
  174. Forced                                   : No

  175. Text #10
  176. ID                                       : 12
  177. Format                                   : PGS
  178. Muxing mode                              : zlib
  179. Codec ID                                 : S_HDMV/PGS
  180. Codec ID/Info                            : Picture based subtitle format used on BDs/HD-DVDs
  181. Duration                                 : 1 h 47 min
  182. Bit rate                                 : 31.4 kb/s
  183. Count of elements                        : 2210
  184. Stream size                              : 24.2 MiB (0%)
  185. Title                                    : Spanish-PGS
  186. Language                                 : Spanish
  187. Default                                  : No
  188. Forced                                   : No

  189. Text #11
  190. ID                                       : 13
  191. Format                                   : PGS
  192. Muxing mode                              : zlib
  193. Codec ID                                 : S_HDMV/PGS
  194. Codec ID/Info                            : Picture based subtitle format used on BDs/HD-DVDs
  195. Duration                                 : 1 h 48 min
  196. Bit rate                                 : 27.5 kb/s
  197. Count of elements                        : 2526
  198. Stream size                              : 21.3 MiB (0%)
  199. Title                                    : Thai-PGS
  200. Language                                 : Thai
  201. Default                                  : No
  202. Forced                                   : No

  203. Text #12
  204. ID                                       : 14
  205. Format                                   : PGS
  206. Muxing mode                              : zlib
  207. Codec ID                                 : S_HDMV/PGS
  208. Codec ID/Info                            : Picture based subtitle format used on BDs/HD-DVDs
  209. Duration                                 : 1 h 48 min
  210. Bit rate                                 : 37.6 kb/s
  211. Count of elements                        : 2294
  212. Stream size                              : 29.0 MiB (0%)
  213. Title                                    : Vietnamese-PGS
  214. Language                                 : Vietnamese
  215. Default                                  : No
  216. Forced                                   : No

  217. Text #13
  218. ID                                       : 15
  219. Format                                   : PGS
  220. Muxing mode                              : zlib
  221. Codec ID                                 : S_HDMV/PGS
  222. Codec ID/Info                            : Picture based subtitle format used on BDs/HD-DVDs
  223. Duration                                 : 1 h 47 min
  224. Bit rate                                 : 70 b/s
  225. Count of elements                        : 6
  226. Stream size                              : 55.9 KiB (0%)
  227. Title                                    : French-PGS
  228. Language                                 : French
  229. Default                                  : No
  230. Forced                                   : No

  231. Menu
  232. 00:00:00.000                             : en:Chapter 01
  233. 00:05:48.556                             : en:Chapter 02
  234. 00:11:20.805                             : en:Chapter 03
  235. 00:18:01.080                             : en:Chapter 04
  236. 00:26:41.600                             : en:Chapter 05
  237. 00:35:10.358                             : en:Chapter 06
  238. 00:42:31.382                             : en:Chapter 07
  239. 00:48:11.138                             : en:Chapter 08
  240. 00:55:32.370                             : en:Chapter 09
  241. 01:03:49.992                             : en:Chapter 10
  242. 01:09:43.262                             : en:Chapter 11
  243. 01:16:20.826                             : en:Chapter 12
  244. 01:24:18.011                             : en:Chapter 13
  245. 01:30:00.186                             : en:Chapter 14
  246. 01:36:05.926                             : en:Chapter 15
  247. 01:41:54.483                             : en:Chapter 16



复制代码
复制代码
065724bvsahxsnzj63y3jx.png 065725rh23ioc0eceo2bmo.png 065726o4ttfetnqfktjctf.png 065727gp7p37gg8j63ymji.png 065728m3yz27gn7tde3271.png 065729iwpyajoy0d60796c.png





回复

使用道具 举报

蓝光币
2
发表于 2018-3-3 15:17:54 | 显示全部楼层
谢谢楼主分享!
回复

使用道具 举报

蓝光币
2
发表于 2018-3-3 15:19:06 | 显示全部楼层
再次感谢楼主!
回复

使用道具 举报

懒得打字嘛,点击右侧快捷回复 【右侧内容,后台自定义】
您需要登录后才可以回帖 登录 | 立即加入

本版积分规则

Archiver| |网站地图

Copyright © 2024 Comsenz Inc. Powered by 蓝光电影网

本站内容由用户自主分享和转载自互联网,转载目的在于传递更多信息,并不代表本网赞同其观点和对其真实性负责。

如有侵权、违反国家法律政策行为,请联系我们,我们会第一时间及时清除和处理!

举报反馈邮箱:4k1080.com@gmail.com

快速回复 返回顶部 返回列表