找回密码

查看: 2357|回复: 2

[剧情] 小丑回魂/它 It.2017.1080p.BluRay.x264.TrueHD.7.1.Atmos-FGT 12.26GB

[复制链接]
蓝光币
1982
发表于 2017-12-20 19:57:32 | 显示全部楼层 |阅读模式
073849lnzbanabyilll779.jpg
◎译  名 小丑回魂/它
◎片  名 It
◎年  代 2017
◎产  地 美国/加拿大
◎类  别 剧情/儿童/可骇
◎语  言 英语
◎上映日期 2017-08-29(伦敦可骇电影节)/2017-09-08(美国)
◎IMDb评分  7.7/10 from 191,798 users
◎IMDb链接  http://www.imdb.com/title/tt1396484/
◎豆瓣评分 7.4/10 from 43,683 users
◎豆瓣链接 https://movie.douban.com/subject/3604148/
◎片  长 135分钟
◎导  演 安德斯·穆斯切蒂 Andrés Muschietti
◎主  演 比尔·斯卡斯加德 Bill Skarsg?rd
      杰顿·李博赫 Jaeden Lieberher
      杰里米·雷·泰勒 Jeremy Ray Taylor
      索菲娅·利利斯 Sophia Lillis
      菲恩·伍法德 Finn Wolfhard
      俦森·雅可布 Chosen Jacobs
      杰克·迪伦·格拉泽 Jack Dylan Grazer
      瓦耶特·奥莱夫 Wyatt Oleff
      杰克逊·罗伯特·斯科特 JacksonRobert Scott
      尼古拉斯·汉密尔顿 Nicholas Hamilton
      杰克·辛 Jake Sim
      洛根·汤普森 Logan Thompson
      欧文·泰格 Owen Teague
      斯蒂夫·博加尔特 Stephen Bogaert
      斯图尔特·休斯 Stuart Hughes
      杰弗里·庞塞特 Geoffrey Pounsett
      皮普·德怀尔 Pip Dwyer
      莫莉·阿特金森 Molly Atkinson
      史蒂文·威廉姆斯 Steven Williams
      伊丽莎白·桑德斯 Elizabeth Saunders
      梅根·查彭提尔 Megan Charpentier
      安东尼·尤埃西 Anthony Ulc
      哈维尔·博泰特 Javier Botet
      伊莎贝尔·内利瑟 Isabelle Nélisse
      尼尔·克容 Neil Crone

◎简  介

  1989年,位于缅因州的德里市,正被可骇的阴影所覆盖。从上一年起头,儿童失落案接连发生,似乎某个可怕的未知存在悄悄来到了人们中心。痛失弟弟的少年比利(杰顿·李博赫 Jaeden Lieberher 饰),决议和艾迪、瑞奇、史丹利等伙伴操纵暑假寻觅弟弟乔治的着落。未几以后,遭小好人们欺侮的小胖子本、被疯传汗漫的坏女孩贝弗莉以及怙恃死于大火的孤儿麦克相继加入这个遭到嗤笑的窝囊废同盟。在这一进程中,他们履历了连续串的超自然的可骇体验。少年们发现,在这个被诅咒的城市,每隔27年非一般灭亡人数就会飙升。狞笑着的小丑(比尔·斯卡斯加德 Bill Skarsg?rd 饰),深入每小我的心底,挖掘他们最恐惧的部分……
  本片按照斯蒂芬·金的同名原著改编。

◎获奖情况

  第23届美国批评家挑选电影奖  (2018)
  最好科幻/可骇片(提名)


  1. Video
  2. ID                                       : 1
  3. Format                                   : AVC
  4. Format/Info                              : Advanced Video Codec
  5. Format profile                           : [url=mailto:High@L4.1]High@L4.1[/url]
  6. Format settings                          : CABAC / 5 Ref Frames
  7. Format settings, CABAC                   : Yes
  8. Format settings, ReFrames                : 5 frames
  9. Codec ID                                 : V_MPEG4/ISO/AVC
  10. Duration                                 : 2 h 14 min
  11. Bit rate                                 : 8 654 kb/s
  12. Width                                    : 1 920 pixels
  13. Height                                   : 800 pixels
  14. Display aspect ratio                     : 2.40:1
  15. Frame rate mode                          : Constant
  16. Frame rate                               : 23.976 FPS
  17. Color space                              : YUV
  18. Chroma subsampling                       : 4:2:0
  19. Bit depth                                : 8 bits
  20. Scan type                                : Progressive
  21. Bits/(Pixel*Frame)                       : 0.235
  22. Stream size                              : 8.14GB (66%)
  23. Title                                    : It.2017.1080p.BluRay.x264.TrueHD.7.1.Atmos-FGT
  24. Writing library                          : x264 core 152 r2851 ba24899
  25. Encoding settings                        : cabac=1 / ref=5 / deblock=1:0:0 / analyse=0x3:0x133 / me=umh / subme=7 / psy=1 / psy_rd=1.00:0.00 / mixed_ref=1 / me_range=16 / chroma_me=1 / trellis=1 / 8x8dct=1 / cqm=0 / deadzone=21,11 / fast_pskip=0 / chroma_qp_offset=-2 / threads=24 / lookahead_threads=4 / sliced_threads=0 / nr=0 / decimate=1 / interlaced=0 / bluray_compat=0 / constrained_intra=0 / bframes=3 / b_pyramid=2 / b_adapt=1 / b_bias=0 / direct=1 / weightb=1 / open_gop=0 / weightp=2 / keyint=250 / keyint_min=23 / scenecut=40 / intra_refresh=0 / rc_lookahead=40 / rc=2pass / mbtree=1 / bitrate=8654 / ratetol=1.0 / qcomp=0.60 / qpmin=0 / qpmax=69 / qpstep=4 / cplxblur=20.0 / qblur=0.5 / ip_ratio=1.40 / aq=1:1.00
  26. Language                                 : English
  27. Default                                  : Yes
  28. Forced                                   : No

  29. Audio #1
  30. ID                                       : 2
  31. Format                                   : TrueHD
  32. Format profile                           : TrueHD+Atmos / TrueHD
  33. Codec ID                                 : A_TRUEHD
  34. Duration                                 : 2 h 14 min
  35. Bit rate mode                            : Variable
  36. Bit rate                                 : 3 783 kb/s
  37. Maximum bit rate                         : 7 701 kb/s
  38. Channel(s)                               : Object Based / 8 channels
  39. Channel positions                        : Object Based / Front: L C R, Side: L R, Back: L R, LFE
  40. Sampling rate                            :  / 48.0 kHz
  41. Frame rate                               : 1 200.000 FPS (40 SPF)
  42. Compression mode                         : Lossless
  43. Stream size                              : 3.56GB (29%)
  44. Title                                    : It.2017.1080p.BluRay.x264.TrueHD.7.1.Atmos-FGT
  45. Language                                 : English
  46. Default                                  : Yes
  47. Forced                                   : No

  48. Audio #2
  49. ID                                       : 3
  50. Format                                   : AC-3
  51. Format/Info                              : Audio Coding 3
  52. Codec ID                                 : A_AC3
  53. Duration                                 : 2 h 14 min
  54. Bit rate mode                            : Constant
  55. Bit rate                                 : 448 kb/s
  56. Channel(s)                               : 6 channels
  57. Channel positions                        : Front: L C R, Side: L R, LFE
  58. Sampling rate                            : 48.0 kHz
  59. Frame rate                               : 31.250 FPS (1536 SPF)
  60. Bit depth                                : 16 bits
  61. Compression mode                         : Lossy
  62. Stream size                              : 432 MiB (3%)
  63. Title                                    : It.2017.1080p.BluRay.x264.TrueHD.7.1.Atmos-FGT
  64. Language                                 : English
  65. Service kind                             : Complete Main
  66. Default                                  : No
  67. Forced                                   : No

  68. Text #1
  69. ID                                       : 4
  70. Format                                   : UTF-8
  71. Codec ID                                 : S_TEXT/UTF8
  72. Codec ID/Info                            : UTF-8 Plain Text
  73. Duration                                 : 2 h 13 min
  74. Bit rate                                 : 38 b/s
  75. Count of elements                        : 1383
  76. Stream size                              : 37.4 KiB (0%)
  77. Title                                    : English-SRT
  78. Language                                 : English
  79. Default                                  : No
  80. Forced                                   : No

  81. Text #2
  82. ID                                       : 5
  83. Format                                   : UTF-8
  84. Codec ID                                 : S_TEXT/UTF8
  85. Codec ID/Info                            : UTF-8 Plain Text
  86. Duration                                 : 2 h 14 min
  87. Bit rate                                 : 50 b/s
  88. Count of elements                        : 1838
  89. Stream size                              : 49.6 KiB (0%)
  90. Title                                    : English-SDH-SRT
  91. Language                                 : English
  92. Default                                  : No
  93. Forced                                   : No

  94. Text #3
  95. ID                                       : 6
  96. Format                                   : PGS
  97. Muxing mode                              : zlib
  98. Codec ID                                 : S_HDMV/PGS
  99. Codec ID/Info                            : Picture based subtitle format used on BDs/HD-DVDs
  100. Duration                                 : 2 h 14 min
  101. Bit rate                                 : 31.9 kb/s
  102. Count of elements                        : 3677
  103. Stream size                              : 30.7 MiB (0%)
  104. Title                                    : English-PGS
  105. Language                                 : English
  106. Default                                  : No
  107. Forced                                   : No

  108. Text #4
  109. ID                                       : 7
  110. Format                                   : PGS
  111. Muxing mode                              : zlib
  112. Codec ID                                 : S_HDMV/PGS
  113. Codec ID/Info                            : Picture based subtitle format used on BDs/HD-DVDs
  114. Duration                                 : 2 h 13 min
  115. Bit rate                                 : 22.4 kb/s
  116. Count of elements                        : 2829
  117. Stream size                              : 21.4 MiB (0%)
  118. Title                                    : Bulgarian-PGS
  119. Language                                 : Bulgarian
  120. Default                                  : No
  121. Forced                                   : No

  122. Text #5
  123. ID                                       : 8
  124. Format                                   : PGS
  125. Muxing mode                              : zlib
  126. Codec ID                                 : S_HDMV/PGS
  127. Codec ID/Info                            : Picture based subtitle format used on BDs/HD-DVDs
  128. Duration                                 : 2 h 13 min
  129. Bit rate                                 : 21.9 kb/s
  130. Count of elements                        : 2765
  131. Stream size                              : 20.8 MiB (0%)
  132. Title                                    : Croatian-PGS
  133. Language                                 : Croatian
  134. Default                                  : No
  135. Forced                                   : No

  136. Text #6
  137. ID                                       : 9
  138. Format                                   : PGS
  139. Muxing mode                              : zlib
  140. Codec ID                                 : S_HDMV/PGS
  141. Codec ID/Info                            : Picture based subtitle format used on BDs/HD-DVDs
  142. Duration                                 : 2 h 13 min
  143. Bit rate                                 : 23.1 kb/s
  144. Count of elements                        : 2803
  145. Stream size                              : 22.1 MiB (0%)
  146. Title                                    : Estonian-PGS
  147. Language                                 : Estonian
  148. Default                                  : No
  149. Forced                                   : No

  150. Text #7
  151. ID                                       : 10
  152. Format                                   : PGS
  153. Muxing mode                              : zlib
  154. Codec ID                                 : S_HDMV/PGS
  155. Codec ID/Info                            : Picture based subtitle format used on BDs/HD-DVDs
  156. Duration                                 : 2 h 13 min
  157. Bit rate                                 : 19.2 kb/s
  158. Count of elements                        : 2823
  159. Stream size                              : 18.3 MiB (0%)
  160. Title                                    : Hebrew-PGS
  161. Language                                 : Hebrew
  162. Default                                  : No
  163. Forced                                   : No

  164. Text #8
  165. ID                                       : 11
  166. Format                                   : PGS
  167. Muxing mode                              : zlib
  168. Codec ID                                 : S_HDMV/PGS
  169. Codec ID/Info                            : Picture based subtitle format used on BDs/HD-DVDs
  170. Duration                                 : 2 h 12 min
  171. Bit rate                                 : 667 b/s
  172. Count of elements                        : 100
  173. Stream size                              : 649 KiB (0%)
  174. Title                                    : Hindi-PGS
  175. Language                                 : Hindi
  176. Default                                  : No
  177. Forced                                   : No

  178. Text #9
  179. ID                                       : 12
  180. Format                                   : PGS
  181. Muxing mode                              : zlib
  182. Codec ID                                 : S_HDMV/PGS
  183. Codec ID/Info                            : Picture based subtitle format used on BDs/HD-DVDs
  184. Duration                                 : 2 h 7 min
  185. Bit rate                                 : 14.8 kb/s
  186. Count of elements                        : 2685
  187. Stream size                              : 13.5 MiB (0%)
  188. Title                                    : Japanese-PGS
  189. Language                                 : Japanese
  190. Default                                  : No
  191. Forced                                   : No

  192. Text #10
  193. ID                                       : 13
  194. Format                                   : PGS
  195. Muxing mode                              : zlib
  196. Codec ID                                 : S_HDMV/PGS
  197. Codec ID/Info                            : Picture based subtitle format used on BDs/HD-DVDs
  198. Duration                                 : 2 h 7 min
  199. Bit rate                                 : 618 b/s
  200. Count of elements                        : 420
  201. Stream size                              : 576 KiB (0%)
  202. Title                                    : Japanese-PGS
  203. Language                                 : Japanese
  204. Default                                  : No
  205. Forced                                   : No

  206. Text #11
  207. ID                                       : 14
  208. Format                                   : PGS
  209. Muxing mode                              : zlib
  210. Codec ID                                 : S_HDMV/PGS
  211. Codec ID/Info                            : Picture based subtitle format used on BDs/HD-DVDs
  212. Duration                                 : 2 h 13 min
  213. Bit rate                                 : 21.6 kb/s
  214. Count of elements                        : 2825
  215. Stream size                              : 20.6 MiB (0%)
  216. Title                                    : Latvian-PGS
  217. Language                                 : Latvian
  218. Default                                  : No
  219. Forced                                   : No

  220. Text #12
  221. ID                                       : 15
  222. Format                                   : PGS
  223. Muxing mode                              : zlib
  224. Codec ID                                 : S_HDMV/PGS
  225. Codec ID/Info                            : Picture based subtitle format used on BDs/HD-DVDs
  226. Duration                                 : 2 h 13 min
  227. Bit rate                                 : 21.4 kb/s
  228. Count of elements                        : 2745
  229. Stream size                              : 20.4 MiB (0%)
  230. Title                                    : Lituanian-PGS
  231. Language                                 : Lithuanian
  232. Default                                  : No
  233. Forced                                   : No

  234. Text #13
  235. ID                                       : 16
  236. Format                                   : PGS
  237. Muxing mode                              : zlib
  238. Codec ID                                 : S_HDMV/PGS
  239. Codec ID/Info                            : Picture based subtitle format used on BDs/HD-DVDs
  240. Duration                                 : 2 h 13 min
  241. Bit rate                                 : 23.6 kb/s
  242. Count of elements                        : 2811
  243. Stream size                              : 22.5 MiB (0%)
  244. Title                                    : Greek-PGS
  245. Language                                 : Greek
  246. Default                                  : No
  247. Forced                                   : No

  248. Text #14
  249. ID                                       : 17
  250. Format                                   : PGS
  251. Muxing mode                              : zlib
  252. Codec ID                                 : S_HDMV/PGS
  253. Codec ID/Info                            : Picture based subtitle format used on BDs/HD-DVDs
  254. Duration                                 : 2 h 13 min
  255. Bit rate                                 : 19.1 kb/s
  256. Count of elements                        : 2023
  257. Stream size                              : 18.2 MiB (0%)
  258. Title                                    : Slovenian-PGS
  259. Language                                 : Slovenian
  260. Default                                  : No
  261. Forced                                   : No

  262. Text #15
  263. ID                                       : 18
  264. Format                                   : PGS
  265. Muxing mode                              : zlib
  266. Codec ID                                 : S_HDMV/PGS
  267. Codec ID/Info                            : Picture based subtitle format used on BDs/HD-DVDs
  268. Duration                                 : 2 h 13 min
  269. Bit rate                                 : 20.7 kb/s
  270. Count of elements                        : 2550
  271. Stream size                              : 19.7 MiB (0%)
  272. Title                                    : Spanish-PGS
  273. Language                                 : Spanish
  274. Default                                  : No
  275. Forced                                   : No

  276. Text #16
  277. ID                                       : 19
  278. Format                                   : PGS
  279. Muxing mode                              : zlib
  280. Codec ID                                 : S_HDMV/PGS
  281. Codec ID/Info                            : Picture based subtitle format used on BDs/HD-DVDs
  282. Duration                                 : 2 h 12 min
  283. Bit rate                                 : 331 b/s
  284. Count of elements                        : 38
  285. Stream size                              : 322 KiB (0%)
  286. Title                                    : Spanish-PGS
  287. Language                                 : Spanish
  288. Default                                  : No
  289. Forced                                   : No

  290. Menu
  291. 00:00:00.000                             : en:00:00:00.000
  292. 00:09:23.646                             : en:00:09:23.646
  293. 00:18:31.861                             : en:00:18:31.861
  294. 00:28:26.163                             : en:00:28:26.163
  295. 00:38:36.981                             : en:00:38:36.981
  296. 00:48:19.438                             : en:00:48:19.438
  297. 00:59:30.776                             : en:00:59:30.776
  298. 01:08:52.795                             : en:01:08:52.795
  299. 01:16:58.823                             : en:01:16:58.823
  300. 01:26:52.958                             : en:01:26:52.958
  301. 01:38:15.306                             : en:01:38:15.306
  302. 01:48:40.973                             : en:01:48:40.973
  303. 02:04:07.899                             : en:02:04:07.899
  304. 02:09:05.655                             : en:02:09:05.655



复制代码
复制代码
073850xvkkk5c385oak93m.png 073851k1pp775qvqsstc13.png 073852d2nlcqfrlzu3kkfl.png 073854dglogozxphp0hh08.png 073855fmop9w93b4gw8yp1.png





回复

使用道具 举报

懒得打字嘛,点击右侧快捷回复 【右侧内容,后台自定义】
您需要登录后才可以回帖 登录 | 立即加入

本版积分规则

Archiver| |网站地图

Copyright © 2024 Comsenz Inc. Powered by 蓝光电影网

本站内容由用户自主分享和转载自互联网,转载目的在于传递更多信息,并不代表本网赞同其观点和对其真实性负责。

如有侵权、违反国家法律政策行为,请联系我们,我们会第一时间及时清除和处理!

举报反馈邮箱:4k1080.com@gmail.com

快速回复 返回顶部 返回列表