找回密码

查看: 4448|回复: 2

[科幻] E.T.外星人/外星人E.T. E.T.the.Extra-Terrestrial.1982.1080p.BluRay.x264.DTS-X.7.1-SWTYBLZ 12.29GB

[复制链接]
蓝光币
1982
发表于 2017-12-20 20:02:52 | 显示全部楼层 |阅读模式
004519opigm3gobnzn79gg.jpg
◎译  名 E.T.外星人/外星人E.T.
◎片  名 E.T.: The Extra-Terrestrial
◎年  代 1982
◎产  地 美国
◎类  别 剧情/科幻
◎语  言 英语
◎上映日期 1982-05-26(戛纳电影节)/1982-06-11(美国)
◎IMDb评分  7.9/10 from 309,728 users
◎IMDb链接  http://www.imdb.com/title/tt0083866/
◎豆瓣评分 8.5/10 from 150,336 users
◎豆瓣链接 https://movie.douban.com/subject/1294638/
◎片  长 115分钟/120分钟(extended version)
◎导  演 Steven Spielberg
◎主  演 Henry Thomas
      Dee Wallace
      Robert MacNaughton
      Drew Barrymore
      Peter Coyote

◎简  介

  小埃利奥特(亨利托马斯)发现一个意外走失的小外星人,他静静的收留了小外星人,并把他先容给自己的哥哥和妹妹。孩子们与外星人友爱的相处,给他吃巧克力,带他去郊外寻觅家人留下的痕迹,并为小外星人的各种特异功用兴奋不已。渐渐的埃利奥特与外星人之间构成了某种奇妙的联系,跨越了言语相同的障碍。
  可是未几,外星人的存在被大人们知晓,无情的追捕行动展开了。ET被抓进尝试室,小埃利奥特也一病不起。孩子们愤慨了,他们自觉构造起来,救援外星人。埃利奥特也在心灵的感化下苏醒过来,加入救援行动。他们能成功么?


  1. Video
  2. ID                                       : 1
  3. Format                                   : AVC
  4. Format/Info                              : Advanced Video Codec
  5. Format profile                           : [url=mailto:High@L4.1]High@L4.1[/url]
  6. Format settings                          : CABAC / 4 Ref Frames
  7. Format settings, CABAC                   : Yes
  8. Format settings, ReFrames                : 4 frames
  9. Codec ID                                 : V_MPEG4/ISO/AVC
  10. Duration                                 : 1 h 54 min
  11. Bit rate                                 : 9 415 kb/s
  12. Width                                    : 1 920 pixels
  13. Height                                   : 1 040 pixels
  14. Display aspect ratio                     : 1.85:1
  15. Frame rate mode                          : Constant
  16. Frame rate                               : 23.976 (24000/1001) FPS
  17. Color space                              : YUV
  18. Chroma subsampling                       : 4:2:0
  19. Bit depth                                : 8 bits
  20. Scan type                                : Progressive
  21. Bits/(Pixel*Frame)                       : 0.197
  22. Stream size                              : 7.53GB (61%)
  23. Title                                    : E.T.the.Extra-Terrestrial.1982.1080p.BluRay.x264.DTS-X.7.1-SWTYBLZ
  24. Writing library                          : x264 core 125 r2208 d9d2288
  25. Encoding settings                        : cabac=1 / ref=4 / deblock=1:0:0 / analyse=0x3:0x113 / me=umh / subme=8 / psy=1 / psy_rd=1.00:0.00 / mixed_ref=1 / me_range=16 / chroma_me=1 / trellis=1 / 8x8dct=1 / cqm=0 / deadzone=21,11 / fast_pskip=1 / chroma_qp_offset=-2 / threads=12 / lookahead_threads=2 / sliced_threads=0 / nr=0 / decimate=1 / interlaced=0 / bluray_compat=0 / constrained_intra=0 / bframes=3 / b_pyramid=2 / b_adapt=2 / b_bias=0 / direct=3 / weightb=1 / open_gop=0 / weightp=2 / keyint=240 / keyint_min=24 / scenecut=40 / intra_refresh=0 / rc_lookahead=50 / rc=2pass / mbtree=1 / bitrate=9415 / ratetol=1.0 / qcomp=0.60 / qpmin=0 / qpmax=69 / qpstep=4 / cplxblur=20.0 / qblur=0.5 / ip_ratio=1.40 / aq=1:1.00
  26. Language                                 : English
  27. Default                                  : Yes
  28. Forced                                   : No

  29. Audio
  30. ID                                       : 2
  31. Format                                   : DTS
  32. Format/Info                              : Digital Theater Systems
  33. Format profile                           : X / MA / Core
  34. Codec ID                                 : A_DTS
  35. Duration                                 : 1 h 54 min
  36. Bit rate mode                            : Variable / Variable / Constant
  37. Bit rate                                 : 5 910 kb/s / 5 910 kb/s / 1 509 kb/s
  38. Channel(s)                               : Object Based / 8 channels / 6 channels
  39. Channel positions                        : Object Based / Front: L C R, Side: L R, Back: L R, LFE / Front: L C R, Side: L R, LFE
  40. Sampling rate                            :  / 48.0 kHz / 48.0 kHz
  41. Frame rate                               : 93.750 FPS (512 SPF)
  42. Bit depth                                :  / 24 bits / 24 bits
  43. Compression mode                         :  / Lossless / Lossy
  44. Stream size                              : 4.73GB (38%)
  45. Title                                    : E.T.the.Extra-Terrestrial.1982.1080p.BluRay.x264.DTS-X.7.1-SWTYBLZ
  46. Language                                 : English
  47. Default                                  : Yes
  48. Forced                                   : No

  49. Text #1
  50. ID                                       : 3
  51. Format                                   : UTF-8
  52. Codec ID                                 : S_TEXT/UTF8
  53. Codec ID/Info                            : UTF-8 Plain Text
  54. Duration                                 : 1 h 47 min
  55. Bit rate                                 : 39 b/s
  56. Count of elements                        : 1161
  57. Stream size                              : 31.5 KiB (0%)
  58. Title                                    : English-SRT
  59. Language                                 : English
  60. Default                                  : Yes
  61. Forced                                   : No

  62. Text #2
  63. ID                                       : 4
  64. Format                                   : PGS
  65. Muxing mode                              : zlib
  66. Codec ID                                 : S_HDMV/PGS
  67. Codec ID/Info                            : Picture based subtitle format used on BDs/HD-DVDs
  68. Duration                                 : 1 h 47 min
  69. Bit rate                                 : 27.6 kb/s
  70. Count of elements                        : 2370
  71. Stream size                              : 21.3 MiB (0%)
  72. Title                                    : English-PGS
  73. Language                                 : English
  74. Default                                  : No
  75. Forced                                   : No

  76. Text #3
  77. ID                                       : 5
  78. Format                                   : PGS
  79. Muxing mode                              : zlib
  80. Codec ID                                 : S_HDMV/PGS
  81. Codec ID/Info                            : Picture based subtitle format used on BDs/HD-DVDs
  82. Duration                                 : 1 h 42 min
  83. Bit rate                                 : 19.3 kb/s
  84. Count of elements                        : 1818
  85. Stream size                              : 14.1 MiB (0%)
  86. Title                                    : French-PGS
  87. Language                                 : French
  88. Default                                  : No
  89. Forced                                   : No

  90. Text #4
  91. ID                                       : 6
  92. Format                                   : PGS
  93. Muxing mode                              : zlib
  94. Codec ID                                 : S_HDMV/PGS
  95. Codec ID/Info                            : Picture based subtitle format used on BDs/HD-DVDs
  96. Duration                                 : 1 h 40 min
  97. Bit rate                                 : 17.9 kb/s
  98. Count of elements                        : 1584
  99. Stream size                              : 12.9 MiB (0%)
  100. Title                                    : Spanish-PGS
  101. Language                                 : Spanish
  102. Default                                  : No
  103. Forced                                   : No

  104. Text #5
  105. ID                                       : 7
  106. Format                                   : PGS
  107. Muxing mode                              : zlib
  108. Codec ID                                 : S_HDMV/PGS
  109. Codec ID/Info                            : Picture based subtitle format used on BDs/HD-DVDs
  110. Duration                                 : 1 h 41 min
  111. Bit rate                                 : 12.6 kb/s
  112. Count of elements                        : 1533
  113. Stream size                              : 9.23 MiB (0%)
  114. Title                                    : Japanese-PGS
  115. Language                                 : Japanese
  116. Default                                  : No
  117. Forced                                   : No

  118. Text #6
  119. ID                                       : 8
  120. Format                                   : PGS
  121. Muxing mode                              : zlib
  122. Codec ID                                 : S_HDMV/PGS
  123. Codec ID/Info                            : Picture based subtitle format used on BDs/HD-DVDs
  124. Duration                                 : 1 h 54 min
  125. Bit rate                                 : 15.0 kb/s
  126. Count of elements                        : 1822
  127. Stream size                              : 12.2 MiB (0%)
  128. Title                                    : Portuguese-PGS
  129. Language                                 : Portuguese
  130. Default                                  : No
  131. Forced                                   : No

  132. Text #7
  133. ID                                       : 9
  134. Format                                   : PGS
  135. Muxing mode                              : zlib
  136. Codec ID                                 : S_HDMV/PGS
  137. Codec ID/Info                            : Picture based subtitle format used on BDs/HD-DVDs
  138. Duration                                 : 1 h 48 min
  139. Bit rate                                 : 15.9 kb/s
  140. Count of elements                        : 1812
  141. Stream size                              : 12.3 MiB (0%)
  142. Title                                    : Chinese-PGS
  143. Language                                 : Chinese
  144. Default                                  : No
  145. Forced                                   : No

  146. Menu
  147. 00:00:00.000                             : en:Chapter 1
  148. 00:04:49.956                             : en:Chapter 2
  149. 00:08:03.357                             : en:Chapter 3
  150. 00:09:57.096                             : en:Chapter 4
  151. 00:12:36.714                             : en:Chapter 5
  152. 00:19:24.580                             : en:Chapter 6
  153. 00:31:32.849                             : en:Chapter 7
  154. 00:36:52.293                             : en:Chapter 8
  155. 00:43:13.757                             : en:Chapter 9
  156. 00:50:34.197                             : en:Chapter 10
  157. 00:57:44.794                             : en:Chapter 11
  158. 01:00:34.130                             : en:Chapter 12
  159. 01:04:13.474                             : en:Chapter 13
  160. 01:11:30.577                             : en:Chapter 14
  161. 01:15:23.143                             : en:Chapter 15
  162. 01:23:37.345                             : en:Chapter 16
  163. 01:30:29.841                             : en:Chapter 17
  164. 01:35:41.902                             : en:Chapter 18
  165. 01:43:26.241                             : en:Chapter 19
  166. 01:50:34.919                             : en:Chapter 20



复制代码
复制代码
004520lvzlkdq5uesvsl4m.png 004522ukxc8sek88yvkoxx.png 004524tt90detjxs5tqf8f.png 004525c70see0w80hpogeo.png 004526kl79z9n73k99agkt.png 004527hudd2ualzap5slsa.png





回复

使用道具 举报

蓝光币
655
发表于 2018-4-23 09:33:51 | 显示全部楼层
感谢楼主分享的大片
回复

使用道具 举报

蓝光币
5
发表于 2019-1-1 00:26:27 | 显示全部楼层

楼主太厉害了!楼主,电影应该很好看我觉得蓝光电影网真是个好地方!
回复

使用道具 举报

懒得打字嘛,点击右侧快捷回复 【右侧内容,后台自定义】
您需要登录后才可以回帖 登录 | 立即加入

本版积分规则

Archiver| |网站地图

Copyright © 2024 Comsenz Inc. Powered by 蓝光电影网

本站内容由用户自主分享和转载自互联网,转载目的在于传递更多信息,并不代表本网赞同其观点和对其真实性负责。

如有侵权、违反国家法律政策行为,请联系我们,我们会第一时间及时清除和处理!

举报反馈邮箱:4k1080.com@gmail.com

快速回复 返回顶部 返回列表