找回密码

查看: 3153|回复: 5

[犯罪] 好人寥寥/义海雄风 A.Few.Good.Men.1992.1080p.BluRay.x264.TrueHD.7.1.Atmos-SWTYBLZ 13.28GB

[复制链接]
蓝光币
1974
发表于 2017-12-20 20:03:48 | 显示全部楼层 |阅读模式
004556vnmmnprrr3i8rsnr.jpg
◎译  名 好人寥寥/义海雄风
◎片  名 A Few Good Men
◎年  代 1992
◎产  地 美国
◎类  别 犯罪/剧情/悬疑/惊悚
◎语  言 英语
◎上映日期 1992-12-11
◎IMDb评分  7.7/10 from 198,201 users
◎IMDb链接  http://www.imdb.com/title/tt0104257/
◎豆瓣评分 7.9/10 from 7,328 users
◎豆瓣链接 https://movie.douban.com/subject/1295260/
◎片  长 138 分钟
◎导  演 Rob Reiner
◎主  演 Tom Cruise
      Jack Nicholson
      Demi Moore
      Kevin Bacon
      Kiefer Sutherland
      Kevin Pollak

◎简  介

  在美国驻古巴关达那摩湾的水兵基地,两名水兵陆战队员道森和多尼被控告杀戮了另一位流兵圣地亚哥。水兵律师丹尼尔·卡菲(汤姆·克鲁斯 Tom Cruise 饰)和助手山姆被派接手此桩案件,他们观察到圣地亚哥曾希望调离基地,还告发过道森。卡菲本想停止庭外调和,争取两年刑期。但是 两名流兵对峙自己无罪,他们对圣地亚哥的行为是履行下级给他们下达的“红色条规”。所谓红色条规,就是一种军官默许的由兵士私下停止的训诫条规。
  卡菲、山姆以及另一位女律师盖洛维(黛米·摩尔 Demi Moore 饰)组成辩方律师停止观察,而基地批示官杰塞普上校(杰克·尼科尔森 Jack Nicholson 饰)是本案的关键人物,他拒绝了圣地亚哥的调离申请,对他下达了“红色条规”,事后擅自篡改了飞翔记录。卡菲虽然晓得真相,却苦于证据不敷,这类情况下如果指证杰塞普上校还会给自己带来麻烦。这场关乎正义的诉讼案,会有一个怎样的成果?


  1. Video
  2. ID                                       : 1
  3. Format                                   : AVC
  4. Format/Info                              : Advanced Video Codec
  5. Format profile                           : [url=mailto:High@L4.1]High@L4.1[/url]
  6. Format settings                          : CABAC / 5 Ref Frames
  7. Format settings, CABAC                   : Yes
  8. Format settings, ReFrames                : 5 frames
  9. Codec ID                                 : V_MPEG4/ISO/AVC
  10. Duration                                 : 2 h 18 min
  11. Bit rate                                 : 8 916 kb/s
  12. Width                                    : 1 920 pixels
  13. Height                                   : 816 pixels
  14. Display aspect ratio                     : 2.35:1
  15. Frame rate mode                          : Constant
  16. Frame rate                               : 23.976 (24000/1001) FPS
  17. Color space                              : YUV
  18. Chroma subsampling                       : 4:2:0
  19. Bit depth                                : 8 bits
  20. Scan type                                : Progressive
  21. Bits/(Pixel*Frame)                       : 0.237
  22. Stream size                              : 8.59GB (65%)
  23. Title                                    : A.Few.Good.Men.1992.1080p.BluRay.x264.TrueHD.7.1.Atmos-SWTYBLZ
  24. Writing library                          : x264 core 138 r2358 9e941d1
  25. Encoding settings                        : cabac=1 / ref=5 / deblock=1:0:0 / analyse=0x3:0x133 / me=umh / subme=7 / psy=1 / psy_rd=1.00:0.00 / mixed_ref=1 / me_range=16 / chroma_me=1 / trellis=1 / 8x8dct=1 / cqm=0 / deadzone=21,11 / fast_pskip=0 / chroma_qp_offset=-2 / threads=12 / lookahead_threads=2 / sliced_threads=0 / nr=0 / decimate=1 / interlaced=0 / bluray_compat=0 / constrained_intra=0 / bframes=3 / b_pyramid=2 / b_adapt=2 / b_bias=0 / direct=3 / weightb=1 / open_gop=0 / weightp=2 / keyint=240 / keyint_min=23 / scenecut=40 / intra_refresh=0 / rc_lookahead=50 / rc=2pass / mbtree=1 / bitrate=8916 / ratetol=1.0 / qcomp=0.60 / qpmin=0 / qpmax=69 / qpstep=4 / cplxblur=20.0 / qblur=0.5 / ip_ratio=1.40 / aq=1:1.00
  26. Language                                 : English
  27. Default                                  : Yes
  28. Forced                                   : No

  29. Audio #1
  30. ID                                       : 2
  31. Format                                   : TrueHD
  32. Format profile                           : TrueHD+Atmos / TrueHD
  33. Codec ID                                 : A_TRUEHD
  34. Duration                                 : 2 h 18 min
  35. Bit rate mode                            : Variable
  36. Bit rate                                 : 3 895 kb/s
  37. Maximum bit rate                         : 6 567 kb/s
  38. Channel(s)                               : Object Based / 8 channels
  39. Channel positions                        : Object Based / Front: L C R, Side: L R, Back: L R, LFE
  40. Sampling rate                            :  / 48.0 kHz
  41. Frame rate                               : 1 200.000 FPS (40 SPF)
  42. Compression mode                         : Lossless
  43. Stream size                              : 3.75GB (28%)
  44. Title                                    : A.Few.Good.Men.1992.1080p.BluRay.x264.TrueHD.7.1.Atmos-SWTYBLZ
  45. Language                                 : English
  46. Default                                  : Yes
  47. Forced                                   : No

  48. Audio #2
  49. ID                                       : 3
  50. Format                                   : AC-3
  51. Format/Info                              : Audio Coding 3
  52. Codec ID                                 : A_AC3
  53. Duration                                 : 2 h 18 min
  54. Bit rate mode                            : Constant
  55. Bit rate                                 : 640 kb/s
  56. Channel(s)                               : 6 channels
  57. Channel positions                        : Front: L C R, Side: L R, LFE
  58. Sampling rate                            : 48.0 kHz
  59. Frame rate                               : 31.250 FPS (1536 SPF)
  60. Bit depth                                : 16 bits
  61. Compression mode                         : Lossy
  62. Delay relative to video                  : 27 ms
  63. Stream size                              : 632 MiB (5%)
  64. Title                                    : A.Few.Good.Men.1992.1080p.BluRay.x264.TrueHD.7.1.Atmos-SWTYBLZ
  65. Language                                 : English
  66. Service kind                             : Complete Main
  67. Default                                  : No
  68. Forced                                   : No

  69. Text #1
  70. ID                                       : 4
  71. Format                                   : PGS
  72. Muxing mode                              : zlib
  73. Codec ID                                 : S_HDMV/PGS
  74. Codec ID/Info                            : Picture based subtitle format used on BDs/HD-DVDs
  75. Duration                                 : 2 h 14 min
  76. Bit rate                                 : 51.5 kb/s
  77. Count of elements                        : 3893
  78. Stream size                              : 49.4 MiB (0%)
  79. Title                                    : English-PGS
  80. Language                                 : English
  81. Default                                  : Yes
  82. Forced                                   : No

  83. Text #2
  84. ID                                       : 5
  85. Format                                   : PGS
  86. Muxing mode                              : zlib
  87. Codec ID                                 : S_HDMV/PGS
  88. Codec ID/Info                            : Picture based subtitle format used on BDs/HD-DVDs
  89. Duration                                 : 2 h 11 min
  90. Bit rate                                 : 51.1 kb/s
  91. Count of elements                        : 3665
  92. Stream size                              : 48.0 MiB (0%)
  93. Title                                    : English-SDH-PGS
  94. Language                                 : English
  95. Default                                  : No
  96. Forced                                   : No

  97. Text #3
  98. ID                                       : 6
  99. Format                                   : PGS
  100. Muxing mode                              : zlib
  101. Codec ID                                 : S_HDMV/PGS
  102. Codec ID/Info                            : Picture based subtitle format used on BDs/HD-DVDs
  103. Duration                                 : 2 h 14 min
  104. Bit rate                                 : 51.6 kb/s
  105. Count of elements                        : 3893
  106. Stream size                              : 49.5 MiB (0%)
  107. Title                                    : English-PGS
  108. Language                                 : English
  109. Default                                  : No
  110. Forced                                   : No

  111. Text #4
  112. ID                                       : 7
  113. Format                                   : PGS
  114. Muxing mode                              : zlib
  115. Codec ID                                 : S_HDMV/PGS
  116. Codec ID/Info                            : Picture based subtitle format used on BDs/HD-DVDs
  117. Duration                                 : 2 h 11 min
  118. Bit rate                                 : 51.2 kb/s
  119. Count of elements                        : 3709
  120. Stream size                              : 48.0 MiB (0%)
  121. Title                                    : English-SDH-PGS
  122. Language                                 : English
  123. Default                                  : No
  124. Forced                                   : No

  125. Text #5
  126. ID                                       : 8
  127. Format                                   : PGS
  128. Muxing mode                              : zlib
  129. Codec ID                                 : S_HDMV/PGS
  130. Codec ID/Info                            : Picture based subtitle format used on BDs/HD-DVDs
  131. Duration                                 : 2 h 13 min
  132. Bit rate                                 : 47.6 kb/s
  133. Count of elements                        : 4204
  134. Stream size                              : 45.3 MiB (0%)
  135. Title                                    : Chinese-PGS
  136. Language                                 : Chinese
  137. Default                                  : No
  138. Forced                                   : No

  139. Text #6
  140. ID                                       : 9
  141. Format                                   : PGS
  142. Muxing mode                              : zlib
  143. Codec ID                                 : S_HDMV/PGS
  144. Codec ID/Info                            : Picture based subtitle format used on BDs/HD-DVDs
  145. Duration                                 : 2 h 13 min
  146. Bit rate                                 : 47.4 kb/s
  147. Count of elements                        : 4292
  148. Stream size                              : 45.1 MiB (0%)
  149. Title                                    : Chinese-PGS
  150. Language                                 : Chinese
  151. Default                                  : No
  152. Forced                                   : No

  153. Text #7
  154. ID                                       : 10
  155. Format                                   : PGS
  156. Muxing mode                              : zlib
  157. Codec ID                                 : S_HDMV/PGS
  158. Codec ID/Info                            : Picture based subtitle format used on BDs/HD-DVDs
  159. Duration                                 : 2 h 17 min
  160. Bit rate                                 : 36.2 kb/s
  161. Count of elements                        : 2511
  162. Stream size                              : 35.5 MiB (0%)
  163. Title                                    : French-PGS
  164. Language                                 : French
  165. Default                                  : No
  166. Forced                                   : No

  167. Text #8
  168. ID                                       : 11
  169. Format                                   : PGS
  170. Muxing mode                              : zlib
  171. Codec ID                                 : S_HDMV/PGS
  172. Codec ID/Info                            : Picture based subtitle format used on BDs/HD-DVDs
  173. Duration                                 : 2 h 13 min
  174. Bit rate                                 : 45.2 kb/s
  175. Count of elements                        : 3454
  176. Stream size                              : 43.0 MiB (0%)
  177. Title                                    : Italian-PGS
  178. Language                                 : Italian
  179. Default                                  : No
  180. Forced                                   : No

  181. Text #9
  182. ID                                       : 12
  183. Format                                   : PGS
  184. Muxing mode                              : zlib
  185. Codec ID                                 : S_HDMV/PGS
  186. Codec ID/Info                            : Picture based subtitle format used on BDs/HD-DVDs
  187. Duration                                 : 2 h 13 min
  188. Bit rate                                 : 32.4 kb/s
  189. Count of elements                        : 3428
  190. Stream size                              : 30.8 MiB (0%)
  191. Title                                    : Japanese-PGS
  192. Language                                 : Japanese
  193. Default                                  : No
  194. Forced                                   : No

  195. Text #10
  196. ID                                       : 13
  197. Format                                   : PGS
  198. Muxing mode                              : zlib
  199. Codec ID                                 : S_HDMV/PGS
  200. Codec ID/Info                            : Picture based subtitle format used on BDs/HD-DVDs
  201. Duration                                 : 2 h 13 min
  202. Bit rate                                 : 34.5 kb/s
  203. Count of elements                        : 3728
  204. Stream size                              : 32.8 MiB (0%)
  205. Title                                    : Korean-PGS
  206. Language                                 : Korean
  207. Default                                  : No
  208. Forced                                   : No

  209. Text #11
  210. ID                                       : 14
  211. Format                                   : PGS
  212. Muxing mode                              : zlib
  213. Codec ID                                 : S_HDMV/PGS
  214. Codec ID/Info                            : Picture based subtitle format used on BDs/HD-DVDs
  215. Duration                                 : 2 h 13 min
  216. Bit rate                                 : 45.7 kb/s
  217. Count of elements                        : 3754
  218. Stream size                              : 43.5 MiB (0%)
  219. Title                                    : Portuguese-PGS
  220. Language                                 : Portuguese
  221. Default                                  : No
  222. Forced                                   : No

  223. Text #12
  224. ID                                       : 15
  225. Format                                   : PGS
  226. Muxing mode                              : zlib
  227. Codec ID                                 : S_HDMV/PGS
  228. Codec ID/Info                            : Picture based subtitle format used on BDs/HD-DVDs
  229. Duration                                 : 2 h 13 min
  230. Bit rate                                 : 46.4 kb/s
  231. Count of elements                        : 3988
  232. Stream size                              : 44.2 MiB (0%)
  233. Title                                    : Spanish-PGS
  234. Language                                 : Spanish
  235. Default                                  : No
  236. Forced                                   : No

  237. Text #13
  238. ID                                       : 16
  239. Format                                   : PGS
  240. Muxing mode                              : zlib
  241. Codec ID                                 : S_HDMV/PGS
  242. Codec ID/Info                            : Picture based subtitle format used on BDs/HD-DVDs
  243. Duration                                 : 2 h 13 min
  244. Bit rate                                 : 40.0 kb/s
  245. Count of elements                        : 3684
  246. Stream size                              : 38.1 MiB (0%)
  247. Title                                    : Thai-PGS
  248. Language                                 : Thai
  249. Default                                  : No
  250. Forced                                   : No

  251. Text #14
  252. ID                                       : 17
  253. Format                                   : PGS
  254. Muxing mode                              : zlib
  255. Codec ID                                 : S_HDMV/PGS
  256. Codec ID/Info                            : Picture based subtitle format used on BDs/HD-DVDs
  257. Duration                                 : 1 h 42 min
  258. Bit rate                                 : 84 b/s
  259. Count of elements                        : 8
  260. Stream size                              : 63.9 KiB (0%)
  261. Title                                    : French-PGS
  262. Language                                 : French
  263. Default                                  : No
  264. Forced                                   : No

  265. Text #15
  266. ID                                       : 18
  267. Format                                   : PGS
  268. Muxing mode                              : zlib
  269. Codec ID                                 : S_HDMV/PGS
  270. Codec ID/Info                            : Picture based subtitle format used on BDs/HD-DVDs
  271. Duration                                 : 1 h 51 min
  272. Bit rate                                 : 106 b/s
  273. Count of elements                        : 9
  274. Stream size                              : 86.7 KiB (0%)
  275. Title                                    : Japanese-PGS
  276. Language                                 : Japanese
  277. Default                                  : No
  278. Forced                                   : No

  279. Menu
  280. 00:00:00.000                             : en:Chapter 1
  281. 00:07:58.895                             : en:Chapter 2
  282. 00:16:32.157                             : en:Chapter 3
  283. 00:25:08.673                             : en:Chapter 4
  284. 00:40:06.737                             : en:Chapter 5
  285. 00:47:42.025                             : en:Chapter 6
  286. 00:57:11.302                             : en:Chapter 7
  287. 01:05:26.505                             : en:Chapter 8
  288. 01:13:03.712                             : en:Chapter 9
  289. 01:22:52.550                             : en:Chapter 10
  290. 01:26:20.133                             : en:Chapter 11
  291. 01:31:10.381                             : en:Chapter 12
  292. 01:39:52.820                             : en:Chapter 13
  293. 01:54:37.829                             : en:Chapter 14
  294. 02:02:41.228                             : en:Chapter 15
  295. 02:10:35.118                             : en:Chapter 16



复制代码
复制代码
004557hktdpatjpmppktm9.png 004559uj6n752hvxguu87g.png 004600ii272h4skgd07kcl.png 004600kgks8k8nkgxc7fn7.png 004602hhx8f2hzzc1b8mzz.png 004602ljeexlgierz7lg1g.png






回复

使用道具 举报

蓝光币
97
发表于 2023-2-18 08:04:53 | 显示全部楼层

楼主太厉害了!楼主,电影应该很好看我觉得蓝光电影网真是个好地方!
回复

使用道具 举报

懒得打字嘛,点击右侧快捷回复 【右侧内容,后台自定义】
您需要登录后才可以回帖 登录 | 立即加入

本版积分规则

Archiver| |网站地图

Copyright © 2024 Comsenz Inc. Powered by 蓝光电影网

本站内容由用户自主分享和转载自互联网,转载目的在于传递更多信息,并不代表本网赞同其观点和对其真实性负责。

如有侵权、违反国家法律政策行为,请联系我们,我们会第一时间及时清除和处理!

举报反馈邮箱:4k1080.com@gmail.com

快速回复 返回顶部 返回列表