找回密码

查看: 5525|回复: 5

[剧情] 乘风破浪 Duckweed.2017.CHINESE.1080p.BluRay.REMUX.AVC.TrueHD.5.1-FGT 19.94GB

[复制链接]
蓝光币
1974
发表于 2017-12-20 22:45:31 | 显示全部楼层 |阅读模式
001929x23ik3swicqbkgiw.jpg
◎译  名 披荆斩棘 / Duckweed
◎片  名 披荆斩棘
◎年  代 2017
◎国  家 中国大陆
◎类  别 剧情 / 笑剧
◎语  言 汉语普通话
◎上映日期 2017-01-28(中国大陆)
◎IMDb评分6.6/10 from 481 users
◎IMDb链接http://www.imdb.com/title/tt6461514/
◎豆瓣评分 6.8/10 from 257528 users
◎豆瓣链接 https://movie.douban.com/subject/26862259/
◎片  长 102分钟
◎导  演 韩寒
◎主  演 邓超 Chao Deng
      彭于晏 Eddie Peng
      赵丽颖 Liying Zhao
      董子健 Zijian Dong
      金士杰 Shih-Chieh King
      易细姨 Joshua
      张本煜 Benyu Zhang
      李荣浩 Ronghao Li
      高华阳 Zack Gao
      李淳 Mason Lee
      孙伊涵 Yihan Sun
      熊黎 Li Xiong
      李春嫒 Chun'ai Li
      潘米 Mi Pan
      小马达 Madagascar
      金毛期期 Qi Qi
      孙启恒 Qiheng Sun
      孙强
      彭菲茗 Feiming Peng
      贾川西 Chuanxi Jia
      张国庆 Guoqing Zhang
      程诚
      白珞力 Luoli Bai
      方励 Li Fang
      郭佳杰
      冷海鸣 Haiming Leng

◎简  介 

  赛车手阿浪(邓超 饰)一向对父亲(彭于晏 饰)否决自己的赛车奇迹耿耿于怀,在向父亲证实自己的进程中,阿浪却意外卷入了一场奇妙的冒险。他在这段履历中结识了一群兄弟好友,一同闯过很多奇异的履历,也对自己的身世有了更多的领会。

◎获奖情况 

  第20届上海国际电影节 (2017)
  亚洲新人奖 最好男配角(提名) 李荣浩

  第24届北京大门生电影节 (2017)
  最受大门生接待女演员 赵丽颖



  1. Video
  2. ID             : 1
  3. Format           : AVC
  4. Format/Info          : Advanced Video Codec
  5. Format profile         : [email]High@L4.1[/email]
  6. Format settings, CABAC       : Yes
  7. Format settings, ReFrames      : 4 frames
  8. Codec ID           : V_MPEG4/ISO/AVC
  9. Duration           : 1h 41mn
  10. Bit rate mode          : Variable
  11. Maximum bit rate         : 30.0 Mbps
  12. Width            : 1 920 pixels
  13. Height           : 1 080 pixels
  14. Display aspect ratio       : 16:9
  15. Frame rate mode        : Constant
  16. Frame rate           : 24.000 fps
  17. Standard           : NTSC
  18. Color space          : YUV
  19. Chroma subsampling       : 4:2:0
  20. Bit depth          : 8 bits
  21. Scan type          : Progressive
  22. Title            : Duckweed.2017.CHINESE.1080p.BluRay.REMUX.AVC.TrueHD.5.1-FGT
  23. Language           : English
  24. Default            : No
  25. Forced           : No
  26. Color range          : Limited
  27. Color primaries        : BT.709
  28. Transfer characteristics     : BT.709
  29. Matrix coefficients        : BT.709

  30. Audio #1
  31. ID             : 2
  32. Format           : TrueHD
  33. Codec ID           : A_TRUEHD
  34. Duration           : 1h 41mn
  35. Bit rate mode          : Variable
  36. Maximum bit rate         : 4 182 Kbps
  37. Channel(s)           : 6 channels
  38. Channel positions        : Front: L C R, Side: L R, LFE
  39. Sampling rate          : 96.0 KHz
  40. Frame rate           : 2 400.000 fps (40 spf)
  41. Compression mode         : Lossless
  42. Title            : Duckweed.2017.CHINESE.1080p.BluRay.REMUX.AVC.TrueHD.5.1-FGT
  43. Language           : Chinese
  44. Default            : Yes
  45. Forced           : No

  46. Audio #2
  47. ID             : 3
  48. Format           : AC-3
  49. Format/Info          : Audio Coding 3
  50. Mode extension         : CM (complete main)
  51. Format settings, Endianness    : Big
  52. Codec ID           : A_AC3
  53. Duration           : 1h 41mn
  54. Bit rate mode          : Constant
  55. Bit rate           : 640 Kbps
  56. Channel(s)           : 6 channels
  57. Channel positions        : Front: L C R, Side: L R, LFE
  58. Sampling rate          : 48.0 KHz
  59. Frame rate           : 31.250 fps (1536 spf)
  60. Compression mode         : Lossy
  61. Stream size          : 465 MiB (2%)
  62. Title            : Duckweed.2017.CHINESE.1080p.BluRay.REMUX.AVC.TrueHD.5.1-FGT
  63. Language           : Chinese
  64. Default            : No
  65. Forced           : No

  66. Audio #3
  67. ID             : 4
  68. Format           : AC-3
  69. Format/Info          : Audio Coding 3
  70. Mode extension         : CM (complete main)
  71. Format settings, Endianness    : Big
  72. Codec ID           : A_AC3
  73. Duration           : 1h 41mn
  74. Bit rate mode          : Constant
  75. Bit rate           : 640 Kbps
  76. Channel(s)           : 6 channels
  77. Channel positions        : Front: L C R, Side: L R, LFE
  78. Sampling rate          : 48.0 KHz
  79. Frame rate           : 31.250 fps (1536 spf)
  80. Compression mode         : Lossy
  81. Stream size          : 465 MiB (2%)
  82. Title            : Duckweed.2017.CHINESE.1080p.BluRay.REMUX.AVC.TrueHD.5.1-FGT
  83. Language           : Chinese
  84. Default            : No
  85. Forced           : No

  86. Text #1
  87. ID             : 5
  88. Format           : PGS
  89. Muxing mode          : zlib
  90. Codec ID           : S_HDMV/PGS
  91. Codec ID/Info          : Picture based subtitle format used on BDs/HD-DVDs
  92. Title            : English-PGS
  93. Language           : English
  94. Default            : Yes
  95. Forced           : No

  96. Text #2
  97. ID             : 6
  98. Format           : PGS
  99. Muxing mode          : zlib
  100. Codec ID           : S_HDMV/PGS
  101. Codec ID/Info          : Picture based subtitle format used on BDs/HD-DVDs
  102. Title            : Chinese-PGS
  103. Language           : Chinese
  104. Default            : No
  105. Forced           : No

  106. Text #3
  107. ID             : 7
  108. Format           : PGS
  109. Muxing mode          : zlib
  110. Codec ID           : S_HDMV/PGS
  111. Codec ID/Info          : Picture based subtitle format used on BDs/HD-DVDs
  112. Title            : Chinese-PGS
  113. Language           : Chinese
  114. Default            : No
  115. Forced           : No

  116. Menu
  117. 00:00:00.000         : en:Chapter 01
  118. 00:05:20.708         : en:Chapter 02
  119. 00:13:02.208         : en:Chapter 03
  120. 00:17:07.250         : en:Chapter 04
  121. 00:22:44.416         : en:Chapter 05
  122. 00:27:21.083         : en:Chapter 06
  123. 00:31:40.416         : en:Chapter 07
  124. 00:35:47.916         : en:Chapter 08
  125. 00:41:04.500         : en:Chapter 09
  126. 00:43:53.791         : en:Chapter 10
  127. 00:47:14.000         : en:Chapter 11
  128. 00:56:54.750         : en:Chapter 12
  129. 01:00:44.833         : en:Chapter 13
  130. 01:04:25.250         : en:Chapter 14
  131. 01:10:06.625         : en:Chapter 15
  132. 01:14:43.916         : en:Chapter 16
  133. 01:23:15.791         : en:Chapter 17
  134. 01:27:53.083         : en:Chapter 18
  135. 01:30:42.541         : en:Chapter 19
  136. 01:33:43.666         : en:Chapter 20
  137. 01:41:32.958         : en:Chapter 21



复制代码
复制代码
001929cdugv2nudgx1ad11.jpg 001929mkl59mmkmy95t57t.jpg 001929ullqqcaluewhul9c.jpg 001929rfsvu05j85hlwnzn.jpg 001929ckckj21w1ke2cyk1.jpg 001929txlbakkxs9dnlk2n.jpg



回复

使用道具 举报

蓝光币
1
发表于 2022-1-28 13:56:05 | 显示全部楼层
谢谢楼主的分享哦哦哦哦哦
回复

使用道具 举报

懒得打字嘛,点击右侧快捷回复 【右侧内容,后台自定义】
您需要登录后才可以回帖 登录 | 立即加入

本版积分规则

Archiver| |网站地图

Copyright © 2024 Comsenz Inc. Powered by 蓝光电影网

本站内容由用户自主分享和转载自互联网,转载目的在于传递更多信息,并不代表本网赞同其观点和对其真实性负责。

如有侵权、违反国家法律政策行为,请联系我们,我们会第一时间及时清除和处理!

举报反馈邮箱:4k1080.com@gmail.com

快速回复 返回顶部 返回列表