找回密码

查看: 2536|回复: 0

[喜剧] 威尔逊/威爾森(台) Wilson.2017.1080p.BluRay.REMUX.AVC.DTS-HD.MA.5.1-FGT 26.94GB

[复制链接]
蓝光币
1984
发表于 2017-12-20 22:46:35 | 显示全部楼层 |阅读模式
002105tfg8ogf0ao3f3j00.jpg
◎译  名 威尔逊 / 威爾森(台)
◎片  名 威尔逊 Wilson
◎年  代 2017
◎国  家 美国
◎类  别 笑剧
◎语  言 英语
◎上映日期 2017-03-24(美国)
◎IMDb评分5.8/10 from 1,248 users
◎IMDb链接http://www.imdb.com/title/tt1781058/
◎豆瓣评分 5.8/10 from 74 users
◎豆瓣链接 https://movie.douban.com/subject/6981216/
◎片  长 无片长信息
◎导  演 克雷格·约翰逊
◎主  演 朱迪·格雷尔 Judy Greer
      劳拉·邓恩 Laura Dern
      伍迪·哈里森 Woody Harrelson
      切瑞·海恩斯 Cheryl Hines
      詹姆斯·塞托 James Saito
      Chris Carlson

◎简  介 

  A lonely, neurotic and hilariously honest middle-aged man reunites with his estranged wife and meets his teenage daughter for the first time.
  Harrelson stars as Wilson, a lonely, neurotic and hilariously honest middle-aged misanthrope who reunites with his estranged wife (Laura Dern) and gets a shot at happiness when he learns he has a teenage daughter (Isabella Amara) he has never met. In his uniquely outrageous and slightly twisted way, he sets out to connect with her. Written by Fox Searchlight Pictures



  1. Video
  2. ID             : 1
  3. Format           : AVC
  4. Format/Info          : Advanced Video Codec
  5. Format profile         : [email]High@L4.1[/email]
  6. Format settings, CABAC       : Yes
  7. Format settings, ReFrames      : 4 frames
  8. Codec ID           : V_MPEG4/ISO/AVC
  9. Duration           : 1h 34mn
  10. Bit rate mode          : Variable
  11. Maximum bit rate         : 37.0 Mbps
  12. Width            : 1 920 pixels
  13. Height           : 1 080 pixels
  14. Display aspect ratio       : 16:9
  15. Frame rate mode        : Constant
  16. Frame rate           : 23.976 (24000/1001) fps
  17. Color space          : YUV
  18. Chroma subsampling       : 4:2:0
  19. Bit depth          : 8 bits
  20. Scan type          : Progressive
  21. Title            : Wilson.2016.1080p.BluRay.REMUX.AVC.DTS-HD.MA.5.1-FGT
  22. Language           : English
  23. Default            : No
  24. Forced           : No

  25. Audio #1
  26. ID             : 2
  27. Format           : DTS
  28. Format/Info          : Digital Theater Systems
  29. Format profile         : MA / Core
  30. Mode             : 16
  31. Format settings, Endianness    : Big
  32. Codec ID           : A_DTS
  33. Duration           : 1h 34mn
  34. Bit rate mode          : Variable / Constant
  35. Bit rate           : Unknown / 1 509 Kbps
  36. Channel(s)           : 6 channels
  37. Channel positions        : Front: L C R, Side: L R, LFE
  38. Sampling rate          : 48.0 KHz
  39. Frame rate           : 93.750 fps (512 spf)
  40. Bit depth          : 24 bits
  41. Compression mode         : Lossless / Lossy
  42. Title            : Wilson.2016.1080p.BluRay.REMUX.AVC.DTS-HD.MA.5.1-FGT
  43. Language           : English
  44. Default            : Yes
  45. Forced           : No

  46. Audio #2
  47. ID             : 3
  48. Format           : DTS
  49. Format/Info          : Digital Theater Systems
  50. Mode             : 16
  51. Format settings, Endianness    : Big
  52. Codec ID           : A_DTS
  53. Duration           : 1h 34mn
  54. Bit rate mode          : Constant
  55. Bit rate           : 1 509 Kbps
  56. Channel(s)           : 6 channels
  57. Channel positions        : Front: L C R, Side: L R, LFE
  58. Sampling rate          : 48.0 KHz
  59. Frame rate           : 93.750 fps (512 spf)
  60. Bit depth          : 24 bits
  61. Compression mode         : Lossy
  62. Stream size          : 1 020 MiB (4%)
  63. Title            : Wilson.2016.1080p.BluRay.REMUX.AVC.DTS-HD.MA.5.1-FGT
  64. Language           : English
  65. Default            : No
  66. Forced           : No

  67. Audio #3
  68. ID             : 4
  69. Format           : AC-3
  70. Format/Info          : Audio Coding 3
  71. Mode extension         : CM (complete main)
  72. Format settings, Endianness    : Big
  73. Codec ID           : A_AC3
  74. Duration           : 1h 34mn
  75. Bit rate mode          : Constant
  76. Bit rate           : 448 Kbps
  77. Channel(s)           : 6 channels
  78. Channel positions        : Front: L C R, Side: L R, LFE
  79. Sampling rate          : 48.0 KHz
  80. Frame rate           : 31.250 fps (1536 spf)
  81. Compression mode         : Lossy
  82. Stream size          : 303 MiB (1%)
  83. Title            : Wilson.2016.1080p.BluRay.REMUX.AVC.DTS-HD.MA.5.1-FGT
  84. Language           : English
  85. Default            : No
  86. Forced           : No

  87. Audio #4
  88. ID             : 5
  89. Format           : AC-3
  90. Format/Info          : Audio Coding 3
  91. Mode extension         : CM (complete main)
  92. Format settings, Endianness    : Big
  93. Codec ID           : A_AC3
  94. Duration           : 1h 34mn
  95. Bit rate mode          : Constant
  96. Bit rate           : 448 Kbps
  97. Channel(s)           : 6 channels
  98. Channel positions        : Front: L C R, Side: L R, LFE
  99. Sampling rate          : 48.0 KHz
  100. Frame rate           : 31.250 fps (1536 spf)
  101. Compression mode         : Lossy
  102. Stream size          : 303 MiB (1%)
  103. Title            : Wilson.2016.1080p.BluRay.REMUX.AVC.DTS-HD.MA.5.1-FGT
  104. Language           : Spanish
  105. Default            : No
  106. Forced           : No

  107. Audio #5
  108. ID             : 6
  109. Format           : AC-3
  110. Format/Info          : Audio Coding 3
  111. Mode extension         : CM (complete main)
  112. Format settings, Endianness    : Big
  113. Codec ID           : A_AC3
  114. Duration           : 1h 34mn
  115. Bit rate mode          : Constant
  116. Bit rate           : 448 Kbps
  117. Channel(s)           : 6 channels
  118. Channel positions        : Front: L C R, Side: L R, LFE
  119. Sampling rate          : 48.0 KHz
  120. Frame rate           : 31.250 fps (1536 spf)
  121. Compression mode         : Lossy
  122. Stream size          : 303 MiB (1%)
  123. Title            : Wilson.2016.1080p.BluRay.REMUX.AVC.DTS-HD.MA.5.1-FGT
  124. Language           : French
  125. Default            : No
  126. Forced           : No

  127. Text #1
  128. ID             : 7
  129. Format           : PGS
  130. Muxing mode          : zlib
  131. Codec ID           : S_HDMV/PGS
  132. Codec ID/Info          : Picture based subtitle format used on BDs/HD-DVDs
  133. Title            : English-PGS
  134. Language           : English
  135. Default            : Yes
  136. Forced           : No

  137. Text #2
  138. ID             : 8
  139. Format           : PGS
  140. Muxing mode          : zlib
  141. Codec ID           : S_HDMV/PGS
  142. Codec ID/Info          : Picture based subtitle format used on BDs/HD-DVDs
  143. Title            : Spanish-PGS
  144. Language           : Spanish
  145. Default            : No
  146. Forced           : No

  147. Text #3
  148. ID             : 9
  149. Format           : PGS
  150. Muxing mode          : zlib
  151. Codec ID           : S_HDMV/PGS
  152. Codec ID/Info          : Picture based subtitle format used on BDs/HD-DVDs
  153. Title            : Spanish-FORCED-PGS
  154. Language           : Spanish
  155. Default            : No
  156. Forced           : No

  157. Text #4
  158. ID             : 10
  159. Format           : PGS
  160. Muxing mode          : zlib
  161. Codec ID           : S_HDMV/PGS
  162. Codec ID/Info          : Picture based subtitle format used on BDs/HD-DVDs
  163. Title            : French-PGS
  164. Language           : French
  165. Default            : No
  166. Forced           : No

  167. Text #5
  168. ID             : 11
  169. Format           : PGS
  170. Muxing mode          : zlib
  171. Codec ID           : S_HDMV/PGS
  172. Codec ID/Info          : Picture based subtitle format used on BDs/HD-DVDs
  173. Title            : French-FORCED-PGS
  174. Language           : French
  175. Default            : No
  176. Forced           : No

  177. Menu
  178. 00:00:00.000         : en:Chapter 01
  179. 00:04:02.492         : en:Chapter 02
  180. 00:07:55.641         : en:Chapter 03
  181. 00:10:50.566         : en:Chapter 04
  182. 00:15:34.183         : en:Chapter 05
  183. 00:18:46.041         : en:Chapter 06
  184. 00:21:33.917         : en:Chapter 07
  185. 00:25:23.104         : en:Chapter 08
  186. 00:31:35.435         : en:Chapter 09
  187. 00:36:17.717         : en:Chapter 10
  188. 00:41:33.073         : en:Chapter 11
  189. 00:45:02.074         : en:Chapter 12
  190. 00:50:21.184         : en:Chapter 13
  191. 00:53:01.178         : en:Chapter 14
  192. 00:55:47.844         : en:Chapter 15
  193. 00:59:14.509         : en:Chapter 16
  194. 01:03:24.217         : en:Chapter 17
  195. 01:06:02.750         : en:Chapter 18
  196. 01:09:37.506         : en:Chapter 19
  197. 01:12:45.361         : en:Chapter 20
  198. 01:17:21.970         : en:Chapter 21
  199. 01:20:29.825         : en:Chapter 22
  200. 01:25:38.216         : en:Chapter 23
  201. 01:27:43.591         : en:Chapter 24



复制代码
复制代码
002105drllqdrrcaic65ch.jpg 002105b2yyqqnke2yo0221.jpg 002105w7cn4lw1vkon759a.jpg 002105wsikifusjnftxdfl.jpg 002106z9w47wzggyuf9fww.jpg 002106k8xzbgcuu66k8bxc.jpg

                                



回复

使用道具 举报

懒得打字嘛,点击右侧快捷回复 【右侧内容,后台自定义】
您需要登录后才可以回帖 登录 | 立即加入

本版积分规则

Archiver| |网站地图

Copyright © 2024 Comsenz Inc. Powered by 蓝光电影网

本站内容由用户自主分享和转载自互联网,转载目的在于传递更多信息,并不代表本网赞同其观点和对其真实性负责。

如有侵权、违反国家法律政策行为,请联系我们,我们会第一时间及时清除和处理!

举报反馈邮箱:4k1080.com@gmail.com

快速回复 返回顶部 返回列表