找回密码

查看: 3660|回复: 1

[科幻] 异星觉醒/外星生命 Life.2017.1080p.BluRay.REMUX.AVC.DTS-HD.MA.7.1-FGT 28.26GB

[复制链接]
蓝光币
1974
发表于 2017-12-20 22:46:56 | 显示全部楼层 |阅读模式
002138nyettvvv6rltlnam.jpg
◎译  名 异星醒觉 / 外星生命 / 异星聪明 / 生命
◎片  名 异星醒觉 Life
◎年  代 2017
◎国  家 美国
◎类  别 科幻 / 惊悚 / 可骇
◎语  言 英语 / 日语
◎上映日期 2017-05-19(中国大陆) / 2017-03-18(西南偏南电影节) / 2017-03-24(美国)
◎IMDb评分6.8/10 from 60,584 users
◎IMDb链接http://www.imdb.com/title/tt5442430/
◎豆瓣评分 6.6/10 from 56433 users
◎豆瓣链接 https://movie.douban.com/subject/26718838/
◎片  长 104分钟
◎导  演 丹尼尔·伊斯皮诺萨
◎主  演 杰克·吉伦哈尔 Jake Gyllenhaal
      丽贝卡·弗格森 Rebecca Ferguson
      瑞恩·雷诺兹 Ryan Reynolds
      真田广之 Hiroyuki Sanada
      阿利安·巴克瑞 Ariyon Bakare
      奥尔加·戴维克娜雅 Olga Dihovichnaya
      大卫·梅尔 David Muir
      伊莉莎白·巴尔加斯 Elizabeth Vargas
      卡米尔·沃伦-泰勒 Camiel Warren-Taylor
      森尚子 Naoko Mori
      亚历山大·阮 Alexandre Nguyen
      希·伍辛 Hiu Woong-Sin

◎简  介 

  几位漂泊在空间站的宇航员们发现了一个来自火星的“奥秘样本”,这个样本实在就是他们一向在找寻的高智能“聪明生命体”。它不但集肌细胞、神经细胞于一体,更具有超强大脑,可以停止超能进化。但却不知其体内居然隐藏庞大的杀机,致使全部空间站都满盈着灭亡的气味,人类的命运也危在旦夕。



  1. Video
  2. ID             : 1
  3. Format           : AVC
  4. Format/Info          : Advanced Video Codec
  5. Format profile         : [email]High@L4.1[/email]
  6. Format settings, CABAC       : Yes
  7. Format settings, ReFrames      : 2 frames
  8. Format settings, GOP       : M=1, N=10
  9. Codec ID           : V_MPEG4/ISO/AVC
  10. Duration           : 1h 43mn
  11. Bit rate mode          : Variable
  12. Width            : 1 920 pixels
  13. Height           : 1 080 pixels
  14. Display aspect ratio       : 16:9
  15. Frame rate mode        : Constant
  16. Frame rate           : 23.976 (24000/1001) fps
  17. Color space          : YUV
  18. Chroma subsampling       : 4:2:0
  19. Bit depth          : 8 bits
  20. Scan type          : Progressive
  21. Title            : Life.2017.1080p.BluRay.REMUX.AVC.DTS-HD.MA.7.1-FGT
  22. Language           : English
  23. Default            : No
  24. Forced           : No

  25. Audio #1
  26. ID             : 2
  27. Format           : DTS
  28. Format/Info          : Digital Theater Systems
  29. Format profile         : MA / Core
  30. Mode             : 16
  31. Format settings, Endianness    : Big
  32. Codec ID           : A_DTS
  33. Duration           : 1h 43mn
  34. Bit rate mode          : Variable / Constant
  35. Bit rate           : Unknown / 1 509 Kbps
  36. Channel(s)           : 8 channels / 6 channels
  37. Channel positions        : Front: L C R, Side: L R, Back: L R, LFE / Front: L C R, Side: L R, LFE
  38. Sampling rate          : 48.0 KHz
  39. Frame rate           : 93.750 fps (512 spf)
  40. Bit depth          : 16 bits
  41. Compression mode         : Lossless / Lossy
  42. Title            : Life.2017.1080p.BluRay.REMUX.AVC.DTS-HD.MA.7.1-FGT
  43. Language           : English
  44. Default            : Yes
  45. Forced           : No

  46. Audio #2
  47. ID             : 3
  48. Format           : DTS
  49. Format/Info          : Digital Theater Systems
  50. Mode             : 16
  51. Format settings, Endianness    : Big
  52. Codec ID           : A_DTS
  53. Duration           : 1h 43mn
  54. Bit rate mode          : Constant
  55. Bit rate           : 1 509 Kbps
  56. Channel(s)           : 6 channels
  57. Channel positions        : Front: L C R, Side: L R, LFE
  58. Sampling rate          : 48.0 KHz
  59. Frame rate           : 93.750 fps (512 spf)
  60. Bit depth          : 16 bits
  61. Compression mode         : Lossy
  62. Stream size          : 1.10GB (4%)
  63. Title            : Life.2017.1080p.BluRay.REMUX.AVC.DTS-HD.MA.7.1-FGT
  64. Language           : English
  65. Default            : No
  66. Forced           : No

  67. Audio #3
  68. ID             : 4
  69. Format           : AC-3
  70. Format/Info          : Audio Coding 3
  71. Mode extension         : CM (complete main)
  72. Format settings, Endianness    : Big
  73. Codec ID           : A_AC3
  74. Duration           : 1h 43mn
  75. Bit rate mode          : Constant
  76. Bit rate           : 640 Kbps
  77. Channel(s)           : 6 channels
  78. Channel positions        : Front: L C R, Side: L R, LFE
  79. Sampling rate          : 48.0 KHz
  80. Frame rate           : 31.250 fps (1536 spf)
  81. Compression mode         : Lossy
  82. Stream size          : 476 MiB (2%)
  83. Title            : Life.2017.1080p.BluRay.REMUX.AVC.DTS-HD.MA.7.1-FGT
  84. Language           : English
  85. Default            : No
  86. Forced           : No

  87. Audio #4
  88. ID             : 5
  89. Format           : DTS
  90. Format/Info          : Digital Theater Systems
  91. Format profile         : MA / Core
  92. Mode             : 16
  93. Format settings, Endianness    : Big
  94. Codec ID           : A_DTS
  95. Duration           : 1h 43mn
  96. Bit rate mode          : Variable / Constant
  97. Bit rate           : Unknown / 1 509 Kbps
  98. Channel(s)           : 6 channels
  99. Channel positions        : Front: L C R, Side: L R, LFE
  100. Sampling rate          : 48.0 KHz
  101. Frame rate           : 93.750 fps (512 spf)
  102. Bit depth          : 16 bits
  103. Compression mode         : Lossless / Lossy
  104. Title            : Life.2017.1080p.BluRay.REMUX.AVC.DTS-HD.MA.7.1-FGT
  105. Language           : French
  106. Default            : No
  107. Forced           : No

  108. Audio #5
  109. ID             : 6
  110. Format           : DTS
  111. Format/Info          : Digital Theater Systems
  112. Mode             : 16
  113. Format settings, Endianness    : Big
  114. Codec ID           : A_DTS
  115. Duration           : 1h 43mn
  116. Bit rate mode          : Constant
  117. Bit rate           : 1 509 Kbps
  118. Channel(s)           : 6 channels
  119. Channel positions        : Front: L C R, Side: L R, LFE
  120. Sampling rate          : 48.0 KHz
  121. Frame rate           : 93.750 fps (512 spf)
  122. Bit depth          : 16 bits
  123. Compression mode         : Lossy
  124. Stream size          : 1.10GB (4%)
  125. Title            : Life.2017.1080p.BluRay.REMUX.AVC.DTS-HD.MA.7.1-FGT
  126. Language           : French
  127. Default            : No
  128. Forced           : No

  129. Audio #6
  130. ID             : 7
  131. Format           : DTS
  132. Format/Info          : Digital Theater Systems
  133. Format profile         : MA / Core
  134. Mode             : 16
  135. Format settings, Endianness    : Big
  136. Codec ID           : A_DTS
  137. Duration           : 1h 43mn
  138. Bit rate mode          : Variable / Constant
  139. Bit rate           : Unknown / 1 509 Kbps
  140. Channel(s)           : 6 channels
  141. Channel positions        : Front: L C R, Side: L R, LFE
  142. Sampling rate          : 48.0 KHz
  143. Frame rate           : 93.750 fps (512 spf)
  144. Bit depth          : 16 bits
  145. Compression mode         : Lossless / Lossy
  146. Title            : Life.2017.1080p.BluRay.REMUX.AVC.DTS-HD.MA.7.1-FGT
  147. Language           : Portuguese
  148. Default            : No
  149. Forced           : No

  150. Audio #7
  151. ID             : 8
  152. Format           : DTS
  153. Format/Info          : Digital Theater Systems
  154. Mode             : 16
  155. Format settings, Endianness    : Big
  156. Codec ID           : A_DTS
  157. Duration           : 1h 43mn
  158. Bit rate mode          : Constant
  159. Bit rate           : 1 509 Kbps
  160. Channel(s)           : 6 channels
  161. Channel positions        : Front: L C R, Side: L R, LFE
  162. Sampling rate          : 48.0 KHz
  163. Frame rate           : 93.750 fps (512 spf)
  164. Bit depth          : 16 bits
  165. Compression mode         : Lossy
  166. Stream size          : 1.10GB (4%)
  167. Title            : Life.2017.1080p.BluRay.REMUX.AVC.DTS-HD.MA.7.1-FGT
  168. Language           : Portuguese
  169. Default            : No
  170. Forced           : No

  171. Audio #8
  172. ID             : 9
  173. Format           : AC-3
  174. Format/Info          : Audio Coding 3
  175. Mode extension         : CM (complete main)
  176. Format settings, Endianness    : Big
  177. Codec ID           : A_AC3
  178. Duration           : 1h 43mn
  179. Bit rate mode          : Constant
  180. Bit rate           : 640 Kbps
  181. Channel(s)           : 6 channels
  182. Channel positions        : Front: L C R, Side: L R, LFE
  183. Sampling rate          : 48.0 KHz
  184. Frame rate           : 31.250 fps (1536 spf)
  185. Compression mode         : Lossy
  186. Stream size          : 476 MiB (2%)
  187. Title            : Life.2017.1080p.BluRay.REMUX.AVC.DTS-HD.MA.7.1-FGT
  188. Language           : Spanish
  189. Default            : No
  190. Forced           : No

  191. Audio #9
  192. ID             : 10
  193. Format           : AC-3
  194. Format/Info          : Audio Coding 3
  195. Mode extension         : CM (complete main)
  196. Format settings, Endianness    : Big
  197. Codec ID           : A_AC3
  198. Duration           : 1h 43mn
  199. Bit rate mode          : Constant
  200. Bit rate           : 640 Kbps
  201. Channel(s)           : 6 channels
  202. Channel positions        : Front: L C R, Side: L R, LFE
  203. Sampling rate          : 48.0 KHz
  204. Frame rate           : 31.250 fps (1536 spf)
  205. Compression mode         : Lossy
  206. Stream size          : 476 MiB (2%)
  207. Title            : Life.2017.1080p.BluRay.REMUX.AVC.DTS-HD.MA.7.1-FGT
  208. Language           : Thai
  209. Default            : No
  210. Forced           : No

  211. Text #1
  212. ID             : 11
  213. Format           : PGS
  214. Muxing mode          : zlib
  215. Codec ID           : S_HDMV/PGS
  216. Codec ID/Info          : Picture based subtitle format used on BDs/HD-DVDs
  217. Title            : English-PGS
  218. Language           : English
  219. Default            : Yes
  220. Forced           : No

  221. Text #2
  222. ID             : 12
  223. Format           : PGS
  224. Muxing mode          : zlib
  225. Codec ID           : S_HDMV/PGS
  226. Codec ID/Info          : Picture based subtitle format used on BDs/HD-DVDs
  227. Title            : English-SDH-PGS
  228. Language           : English
  229. Default            : No
  230. Forced           : No

  231. Text #3
  232. ID             : 13
  233. Format           : PGS
  234. Muxing mode          : zlib
  235. Codec ID           : S_HDMV/PGS
  236. Codec ID/Info          : Picture based subtitle format used on BDs/HD-DVDs
  237. Title            : Chinese-PGS
  238. Language           : Chinese
  239. Default            : No
  240. Forced           : No

  241. Text #4
  242. ID             : 14
  243. Format           : PGS
  244. Muxing mode          : zlib
  245. Codec ID           : S_HDMV/PGS
  246. Codec ID/Info          : Picture based subtitle format used on BDs/HD-DVDs
  247. Title            : Chinese-PGS
  248. Language           : Chinese
  249. Default            : No
  250. Forced           : No

  251. Text #5
  252. ID             : 15
  253. Format           : PGS
  254. Muxing mode          : zlib
  255. Codec ID           : S_HDMV/PGS
  256. Codec ID/Info          : Picture based subtitle format used on BDs/HD-DVDs
  257. Title            : Chinese-PGS
  258. Language           : Chinese
  259. Default            : No
  260. Forced           : No

  261. Text #6
  262. ID             : 16
  263. Format           : PGS
  264. Muxing mode          : zlib
  265. Codec ID           : S_HDMV/PGS
  266. Codec ID/Info          : Picture based subtitle format used on BDs/HD-DVDs
  267. Title            : Indonesian-PGS
  268. Language           : Indonesian
  269. Default            : No
  270. Forced           : No

  271. Text #7
  272. ID             : 17
  273. Format           : PGS
  274. Muxing mode          : zlib
  275. Codec ID           : S_HDMV/PGS
  276. Codec ID/Info          : Picture based subtitle format used on BDs/HD-DVDs
  277. Title            : Korean-PGS
  278. Language           : Korean
  279. Default            : No
  280. Forced           : No

  281. Text #8
  282. ID             : 18
  283. Format           : PGS
  284. Muxing mode          : zlib
  285. Codec ID           : S_HDMV/PGS
  286. Codec ID/Info          : Picture based subtitle format used on BDs/HD-DVDs
  287. Title            : Malay-PGS
  288. Language           : Malay
  289. Default            : No
  290. Forced           : No

  291. Text #9
  292. ID             : 19
  293. Format           : PGS
  294. Muxing mode          : zlib
  295. Codec ID           : S_HDMV/PGS
  296. Codec ID/Info          : Picture based subtitle format used on BDs/HD-DVDs
  297. Title            : Portuguese-PGS
  298. Language           : Portuguese
  299. Default            : No
  300. Forced           : No

  301. Text #10
  302. ID             : 20
  303. Format           : PGS
  304. Muxing mode          : zlib
  305. Codec ID           : S_HDMV/PGS
  306. Codec ID/Info          : Picture based subtitle format used on BDs/HD-DVDs
  307. Title            : Portuguese-FORCED-PGS
  308. Language           : Portuguese
  309. Default            : No
  310. Forced           : No

  311. Text #11
  312. ID             : 21
  313. Format           : PGS
  314. Muxing mode          : zlib
  315. Codec ID           : S_HDMV/PGS
  316. Codec ID/Info          : Picture based subtitle format used on BDs/HD-DVDs
  317. Title            : Spanish-PGS
  318. Language           : Spanish
  319. Default            : No
  320. Forced           : No

  321. Text #12
  322. ID             : 22
  323. Format           : PGS
  324. Muxing mode          : zlib
  325. Codec ID           : S_HDMV/PGS
  326. Codec ID/Info          : Picture based subtitle format used on BDs/HD-DVDs
  327. Title            : Spanish-FORCED-PGS
  328. Language           : Spanish
  329. Default            : No
  330. Forced           : No

  331. Text #13
  332. ID             : 23
  333. Format           : PGS
  334. Muxing mode          : zlib
  335. Codec ID           : S_HDMV/PGS
  336. Codec ID/Info          : Picture based subtitle format used on BDs/HD-DVDs
  337. Title            : Thai-PGS
  338. Language           : Thai
  339. Default            : No
  340. Forced           : No

  341. Text #14
  342. ID             : 24
  343. Format           : PGS
  344. Muxing mode          : zlib
  345. Codec ID           : S_HDMV/PGS
  346. Codec ID/Info          : Picture based subtitle format used on BDs/HD-DVDs
  347. Title            : French-PGS
  348. Language           : French
  349. Default            : No
  350. Forced           : No

  351. Text #15
  352. ID             : 25
  353. Format           : PGS
  354. Muxing mode          : zlib
  355. Codec ID           : S_HDMV/PGS
  356. Codec ID/Info          : Picture based subtitle format used on BDs/HD-DVDs
  357. Title            : French-FORCED-PGS
  358. Language           : French
  359. Default            : No
  360. Forced           : No

  361. Menu
  362. 00:00:00.000         : en:Chapter 01
  363. 00:09:32.863         : en:Chapter 02
  364. 00:13:13.250         : en:Chapter 03
  365. 00:15:36.810         : en:Chapter 04
  366. 00:19:35.132         : en:Chapter 05
  367. 00:24:57.204         : en:Chapter 06
  368. 00:34:36.991         : en:Chapter 07
  369. 00:40:45.109         : en:Chapter 08
  370. 00:43:59.303         : en:Chapter 09
  371. 00:52:21.680         : en:Chapter 10
  372. 00:58:33.718         : en:Chapter 11
  373. 01:06:37.785         : en:Chapter 12
  374. 01:11:43.257         : en:Chapter 13
  375. 01:17:50.749         : en:Chapter 14
  376. 01:22:39.496         : en:Chapter 15
  377. 01:28:34.309         : en:Chapter 16



复制代码
复制代码
002138f1ug8b7sss17ubz0.jpg 002138h8oraak7aiax18qw.jpg 002138z11kro6widd3obqw.jpg 002138rutzwt1cehjwiswu.jpg 002138pru0j4jjx24jar34.jpg 002138e5i4l5i7ics11i5i.jpg





回复

使用道具 举报

蓝光币
708
发表于 2020-8-2 19:11:57 | 显示全部楼层
Thanks♪(・ω・)ノ
回复

使用道具 举报

懒得打字嘛,点击右侧快捷回复 【右侧内容,后台自定义】
您需要登录后才可以回帖 登录 | 立即加入

本版积分规则

Archiver| |网站地图

Copyright © 2024 Comsenz Inc. Powered by 蓝光电影网

本站内容由用户自主分享和转载自互联网,转载目的在于传递更多信息,并不代表本网赞同其观点和对其真实性负责。

如有侵权、违反国家法律政策行为,请联系我们,我们会第一时间及时清除和处理!

举报反馈邮箱:4k1080.com@gmail.com

快速回复 返回顶部 返回列表