找回密码

查看: 3209|回复: 0

[奇幻] 龙之心4:心火之战/魔龙传奇4:心火之战 Dragonheart.Battle.for.the.Heartfire.2017.1080p.BluRay.REMUX.AVC.DTS-HD.MA.5.1-FGT 26.60GB

[复制链接]
蓝光币
1992
发表于 2017-12-20 22:47:15 | 显示全部楼层 |阅读模式
002211no6o40ob9ra6ajfx.jpg
◎译  名 龙之心4:心火之战 / 魔龙传奇4:心火之战 / 魔幻屠龙4:心火之战
◎片  名 龙之心4:心火之战 Dragonheart Battle for the Heartfire
◎年  代 2017
◎国  家 美国
◎类  别 奇异
◎语  言 英语
◎上映日期 2017-06-13(美国)
◎IMDb评分今朝无人评价
◎IMDb链接http://www.imdb.com/title/tt5610626/
◎豆瓣评分 今朝无人评价
◎豆瓣链接 https://movie.douban.com/subject/27064359/
◎片  长 97分钟
◎导  演 Patrik Syversen
◎主  演 帕特里克·斯图尔特 Patrick Stewart
      Tom Rhys Harries
      Jessamine-Bliss Bell
      塔姆金·莫钦特 Tamzin Merchant
      André Eriksen
      Richard Cordery
      Martin Hutson

◎简  介 

  巨龙Drago(帕特里克·斯图尔特配音)曾与Gareth国王连系。 国王死后,他的潜伏继续人双胞胎孙辈相互争取王位。 当Drago的气力源强 “心火” 被盗时,国家危在旦夕......



  1. Video
  2. ID             : 1
  3. Format           : AVC
  4. Format/Info          : Advanced Video Codec
  5. Format profile         : [email]High@L4.1[/email]
  6. Format settings, CABAC       : Yes
  7. Format settings, ReFrames      : 4 frames
  8. Format settings, GOP       : M=3, N=12
  9. Codec ID           : V_MPEG4/ISO/AVC
  10. Duration           : 1h 37mn
  11. Bit rate mode          : Variable
  12. Maximum bit rate         : 35.0 Mbps
  13. Width            : 1 920 pixels
  14. Height           : 1 080 pixels
  15. Display aspect ratio       : 16:9
  16. Frame rate mode        : Constant
  17. Frame rate           : 23.976 (24000/1001) fps
  18. Color space          : YUV
  19. Chroma subsampling       : 4:2:0
  20. Bit depth          : 8 bits
  21. Scan type          : Progressive
  22. Title            : Dragonheart.Battle.for.the.Heartfire.2017.1080p.BluRay.REMUX.AVC.DTS-HD.MA.5.1-FGT
  23. Language           : English
  24. Default            : No
  25. Forced           : No

  26. Audio #1
  27. ID             : 2
  28. Format           : DTS
  29. Format/Info          : Digital Theater Systems
  30. Format profile         : MA / Core
  31. Mode             : 16
  32. Format settings, Endianness    : Big
  33. Codec ID           : A_DTS
  34. Duration           : 1h 37mn
  35. Bit rate mode          : Variable / Constant
  36. Bit rate           : Unknown / 1 509 Kbps
  37. Channel(s)           : 6 channels
  38. Channel positions        : Front: L C R, Side: L R, LFE
  39. Sampling rate          : 48.0 KHz
  40. Frame rate           : 93.750 fps (512 spf)
  41. Bit depth          : 24 bits
  42. Compression mode         : Lossless / Lossy
  43. Title            : Dragonheart.Battle.for.the.Heartfire.2017.1080p.BluRay.REMUX.AVC.DTS-HD.MA.5.1-FGT
  44. Language           : English
  45. Default            : Yes
  46. Forced           : No

  47. Audio #2
  48. ID             : 3
  49. Format           : DTS
  50. Format/Info          : Digital Theater Systems
  51. Mode             : 16
  52. Format settings, Endianness    : Big
  53. Codec ID           : A_DTS
  54. Duration           : 1h 37mn
  55. Bit rate mode          : Constant
  56. Bit rate           : 1 509 Kbps
  57. Channel(s)           : 6 channels
  58. Channel positions        : Front: L C R, Side: L R, LFE
  59. Sampling rate          : 48.0 KHz
  60. Frame rate           : 93.750 fps (512 spf)
  61. Bit depth          : 24 bits
  62. Compression mode         : Lossy
  63. Stream size          : 1.03GB (4%)
  64. Title            : Dragonheart.Battle.for.the.Heartfire.2017.1080p.BluRay.REMUX.AVC.DTS-HD.MA.5.1-FGT
  65. Language           : English
  66. Default            : No
  67. Forced           : No

  68. Audio #3
  69. ID             : 4
  70. Format           : DTS
  71. Format/Info          : Digital Theater Systems
  72. Mode             : 16
  73. Format settings, Endianness    : Big
  74. Codec ID           : A_DTS
  75. Duration           : 1h 37mn
  76. Bit rate mode          : Constant
  77. Bit rate           : 768 Kbps
  78. Channel(s)           : 6 channels
  79. Channel positions        : Front: L C R, Side: L R, LFE
  80. Sampling rate          : 48.0 KHz
  81. Frame rate           : 93.750 fps (512 spf)
  82. Bit depth          : 24 bits
  83. Compression mode         : Lossy
  84. Stream size          : 537 MiB (2%)
  85. Title            : Dragonheart.Battle.for.the.Heartfire.2017.1080p.BluRay.REMUX.AVC.DTS-HD.MA.5.1-FGT
  86. Language           : Spanish
  87. Default            : No
  88. Forced           : No

  89. Audio #4
  90. ID             : 5
  91. Format           : DTS
  92. Format/Info          : Digital Theater Systems
  93. Mode             : 16
  94. Format settings, Endianness    : Big
  95. Codec ID           : A_DTS
  96. Duration           : 1h 37mn
  97. Bit rate mode          : Constant
  98. Bit rate           : 768 Kbps
  99. Channel(s)           : 6 channels
  100. Channel positions        : Front: L C R, Side: L R, LFE
  101. Sampling rate          : 48.0 KHz
  102. Frame rate           : 93.750 fps (512 spf)
  103. Bit depth          : 24 bits
  104. Compression mode         : Lossy
  105. Stream size          : 537 MiB (2%)
  106. Title            : Dragonheart.Battle.for.the.Heartfire.2017.1080p.BluRay.REMUX.AVC.DTS-HD.MA.5.1-FGT
  107. Language           : French
  108. Default            : No
  109. Forced           : No

  110. Text #1
  111. ID             : 6
  112. Format           : PGS
  113. Muxing mode          : zlib
  114. Codec ID           : S_HDMV/PGS
  115. Codec ID/Info          : Picture based subtitle format used on BDs/HD-DVDs
  116. Title            : English-PGS
  117. Language           : English
  118. Default            : Yes
  119. Forced           : No

  120. Text #2
  121. ID             : 7
  122. Format           : PGS
  123. Muxing mode          : zlib
  124. Codec ID           : S_HDMV/PGS
  125. Codec ID/Info          : Picture based subtitle format used on BDs/HD-DVDs
  126. Title            : Spanish-PGS
  127. Language           : Spanish
  128. Default            : No
  129. Forced           : No

  130. Text #3
  131. ID             : 8
  132. Format           : PGS
  133. Muxing mode          : zlib
  134. Codec ID           : S_HDMV/PGS
  135. Codec ID/Info          : Picture based subtitle format used on BDs/HD-DVDs
  136. Title            : French-PGS
  137. Language           : French
  138. Default            : No
  139. Forced           : No

  140. Text #4
  141. ID             : 9
  142. Format           : PGS
  143. Muxing mode          : zlib
  144. Codec ID           : S_HDMV/PGS
  145. Codec ID/Info          : Picture based subtitle format used on BDs/HD-DVDs
  146. Title            : French-FORCED-PGS
  147. Language           : French
  148. Default            : No
  149. Forced           : No

  150. Menu
  151. 00:00:00.000         : en:Chapter 01
  152. 00:03:39.344         : en:Chapter 02
  153. 00:07:40.501         : en:Chapter 03
  154. 00:13:19.298         : en:Chapter 04
  155. 00:19:46.602         : en:Chapter 05
  156. 00:24:57.621         : en:Chapter 06
  157. 00:30:13.186         : en:Chapter 07
  158. 00:35:54.652         : en:Chapter 08
  159. 00:39:54.350         : en:Chapter 09
  160. 00:45:37.109         : en:Chapter 10
  161. 00:48:57.559         : en:Chapter 11
  162. 00:51:23.830         : en:Chapter 12
  163. 00:56:22.587         : en:Chapter 13
  164. 01:00:07.979         : en:Chapter 14
  165. 01:06:41.872         : en:Chapter 15
  166. 01:14:41.602         : en:Chapter 16
  167. 01:19:00.485         : en:Chapter 17
  168. 01:22:40.997         : en:Chapter 18
  169. 01:29:40.625         : en:Chapter 19
  170. 01:34:10.686         : en:Chapter 20



复制代码
复制代码
002211dezm3ekq1eq4dddm.jpg 002211pv0u3tu30zxp0uxz.jpg 002211zzz77ss34s3r41dq.jpg 002211qo72a3gov33737ao.jpg 002211stkx5qthwj4lk7j7.jpg 002211ycjo93ov6eeo5ywp.jpg

                                


回复

使用道具 举报

懒得打字嘛,点击右侧快捷回复 【右侧内容,后台自定义】
您需要登录后才可以回帖 登录 | 立即加入

本版积分规则

Archiver| |网站地图

Copyright © 2024 Comsenz Inc. Powered by 蓝光电影网

本站内容由用户自主分享和转载自互联网,转载目的在于传递更多信息,并不代表本网赞同其观点和对其真实性负责。

如有侵权、违反国家法律政策行为,请联系我们,我们会第一时间及时清除和处理!

举报反馈邮箱:4k1080.com@gmail.com

快速回复 返回顶部 返回列表