找回密码

查看: 3731|回复: 0

[剧情] 父母双全的孤女/不可调和的差异 Irreconcilable.Differences.1984.1080p.BluRay.REMUX.AVC.DTS-HD.MA.1.0-FGT 21.89GB

[复制链接]
蓝光币
1982
发表于 2017-12-20 22:51:06 | 显示全部楼层 |阅读模式
002606xejz7xnfgyd4ygz8.jpg
◎译  名 怙恃双全的孤女 / 不成和谐的差别 / 舞台
◎片  名 怙恃双全的孤女 Irreconcilable Differences
◎年  代 1984
◎国  家 美国
◎类  别 剧情 / 笑剧 / 恋爱
◎语  言 英语
◎上映日期 1984-09-28
◎IMDb评分5.8/10 from 2,453 users
◎IMDb链接http://www.imdb.com/title/tt0087482/
◎豆瓣评分 今朝无人评价
◎豆瓣链接 https://movie.douban.com/subject/1301395/
◎片  长 113 分钟
◎导  演 查尔斯·谢尔
◎主  演 瑞安·奥尼尔 Ryan O'Neal
      谢莉·朗 Shelley Long
      德鲁·巴里摩尔 Drew Barrymore

◎简  介 

  年仅九岁的小姑娘凯西向法院提出了申述,果断和亲生怙恃离开关系,并要求和家中的女仆人生活在一路,这是为什么? 凯西的父亲艾伯特是电影导演,母亲露西是位作家,他们是相逢相遇而相爱的,婚后生活幸运完竣。 几年曩昔了,他们心爱的凯西也长大了。艾伯特仍然处置电影导演工作。在拍一部新片时,他请了一位非职业演员演配角。由于天天在一路拍戏,艾伯特和她发生了暗昧的豪情。他们不一般的关系被露西发现了,她就带着女儿分开了艾伯特。今后,俩人关系时好时坏,在这类经常不竭地相互进犯、吵闹打架情况中生活的凯西感应腻烦和失望,因而她来到了法庭......



  1. Video
  2. ID             : 1
  3. Format           : AVC
  4. Format/Info          : Advanced Video Codec
  5. Format profile         : [email]High@L4.1[/email]
  6. Format settings, CABAC       : Yes
  7. Format settings, ReFrames      : 4 frames
  8. Format settings, GOP       : M=3, N=24
  9. Codec ID           : V_MPEG4/ISO/AVC
  10. Duration           : 1 h 53 min
  11. Bit rate mode          : Variable
  12. Maximum bit rate         : 32.0 Mb/s
  13. Width            : 1 920 pixels
  14. Height           : 1 080 pixels
  15. Display aspect ratio       : 16:9
  16. Frame rate mode        : Constant
  17. Frame rate           : 23.976 (24000/1001) FPS
  18. Standard           : NTSC
  19. Color space          : YUV
  20. Chroma subsampling       : 4:2:0
  21. Bit depth          : 8 bits
  22. Scan type          : Progressive
  23. Title            : Irreconcilable.Differences.1984.1080p.BluRay.REMUX.AVC.DTS-HD.MA.1.0-FGT
  24. Language           : English
  25. Default            : No
  26. Forced           : No
  27. Color range          : Limited
  28. Color primaries        : BT.709
  29. Transfer characteristics     : BT.709
  30. Matrix coefficients        : BT.709

  31. Audio #1
  32. ID             : 2
  33. Format           : DTS
  34. Format/Info          : Digital Theater Systems
  35. Format profile         : MA / Core
  36. Mode             : 16
  37. Format settings, Endianness    : Big
  38. Codec ID           : A_DTS
  39. Duration           : 1 h 53 min
  40. Bit rate mode          : Variable / Constant
  41. Bit rate           : Unknown / 768 kb/s
  42. Channel(s)           : 1 channel
  43. Channel positions        : Front: C
  44. Sampling rate          : 48.0 kHz
  45. Frame rate           : 93.750 FPS (512 spf)
  46. Bit depth          : 16 bits
  47. Compression mode         : Lossless / Lossy
  48. Title            : Irreconcilable.Differences.1984.1080p.BluRay.REMUX.AVC.DTS-HD.MA.1.0-FGT
  49. Language           : English
  50. Default            : Yes
  51. Forced           : No

  52. Audio #2
  53. ID             : 3
  54. Format           : DTS
  55. Format/Info          : Digital Theater Systems
  56. Mode             : 16
  57. Format settings, Endianness    : Big
  58. Codec ID           : A_DTS
  59. Duration           : 1 h 53 min
  60. Bit rate mode          : Constant
  61. Bit rate           : 768 kb/s
  62. Channel(s)           : 1 channel
  63. Channel positions        : Front: C
  64. Sampling rate          : 48.0 kHz
  65. Frame rate           : 93.750 FPS (512 spf)
  66. Bit depth          : 16 bits
  67. Compression mode         : Lossy
  68. Stream size          : 625 MiB (3%)
  69. Title            : Irreconcilable.Differences.1984.1080p.BluRay.REMUX.AVC.DTS-HD.MA.1.0-FGT
  70. Language           : English
  71. Default            : No
  72. Forced           : No

  73. Audio #3
  74. ID             : 4
  75. Format           : DTS
  76. Format/Info          : Digital Theater Systems
  77. Format profile         : MA / Core
  78. Mode             : 16
  79. Format settings, Endianness    : Big
  80. Codec ID           : A_DTS
  81. Duration           : 1 h 53 min
  82. Bit rate mode          : Variable / Constant
  83. Bit rate           : Unknown / 768 kb/s
  84. Channel(s)           : 1 channel
  85. Channel positions        : Front: C
  86. Sampling rate          : 48.0 kHz
  87. Frame rate           : 93.750 FPS (512 spf)
  88. Bit depth          : 16 bits
  89. Compression mode         : Lossless / Lossy
  90. Title            : Irreconcilable.Differences.1984.1080p.BluRay.REMUX.AVC.DTS-HD.MA.1.0-FGT
  91. Language           : English
  92. Default            : No
  93. Forced           : No

  94. Audio #4
  95. ID             : 5
  96. Format           : DTS
  97. Format/Info          : Digital Theater Systems
  98. Mode             : 16
  99. Format settings, Endianness    : Big
  100. Codec ID           : A_DTS
  101. Duration           : 1 h 53 min
  102. Bit rate mode          : Constant
  103. Bit rate           : 768 kb/s
  104. Channel(s)           : 1 channel
  105. Channel positions        : Front: C
  106. Sampling rate          : 48.0 kHz
  107. Frame rate           : 93.750 FPS (512 spf)
  108. Bit depth          : 16 bits
  109. Compression mode         : Lossy
  110. Stream size          : 625 MiB (3%)
  111. Title            : Irreconcilable.Differences.1984.1080p.BluRay.REMUX.AVC.DTS-HD.MA.1.0-FGT
  112. Language           : English
  113. Default            : No
  114. Forced           : No

  115. Menu
  116. 00:00:00.000         : en:Chapter 01
  117. 00:23:50.887         : en:Chapter 02
  118. 00:46:50.974         : en:Chapter 03
  119. 00:55:28.450         : en:Chapter 04
  120. 01:07:49.523         : en:Chapter 05
  121. 01:23:49.274         : en:Chapter 06
  122. 01:38:43.959         : en:Chapter 07
  123. 01:46:31.927         : en:Chapter 08



复制代码
复制代码
002606eww59qggedw94zg9.jpg 002606vtooucbxl2obo11n.jpg 002606j4zb1oicc4osavuv.jpg 002606qzlr1thaahy96ha7.jpg 002606hua57t5x5b97hxb6.jpg 002606rb8jbfzj11m0ltf0.jpg




回复

使用道具 举报

懒得打字嘛,点击右侧快捷回复 【右侧内容,后台自定义】
您需要登录后才可以回帖 登录 | 立即加入

本版积分规则

Archiver| |网站地图

Copyright © 2024 Comsenz Inc. Powered by 蓝光电影网

本站内容由用户自主分享和转载自互联网,转载目的在于传递更多信息,并不代表本网赞同其观点和对其真实性负责。

如有侵权、违反国家法律政策行为,请联系我们,我们会第一时间及时清除和处理!

举报反馈邮箱:4k1080.com@gmail.com

快速回复 返回顶部 返回列表