找回密码

查看: 3700|回复: 0

[剧情] 神勇奶爸/超级奶爸 The.Pacifier.2005.1080p.BluRay.REMUX.MPEG-2.LPCM.5.1-FGT 20.09GB

[复制链接]
蓝光币
1971
发表于 2017-12-20 23:20:40 | 显示全部楼层 |阅读模式
003358qss5cpcuxbcyscuc.jpg
◎译  名 神勇奶爸 / 超级奶爸 / 限制级褓母 / 凑仔型警 / 限制级奶嘴 / 摇舵记
◎片  名 神勇奶爸 The Pacifier
◎年  代 2005
◎国  家 加拿大 / 美国
◎类  别 剧情 / 笑剧 / 行动 / 惊悚 / 家庭
◎语  言 英语 / 韩语
◎上映日期 2005-03-04(美国)
◎IMDb评分5.6/10 from 71,477 users
◎IMDb链接http://www.imdb.com/title/tt0395699/
◎豆瓣评分 6.8/10 from 22415 users
◎豆瓣链接 https://movie.douban.com/subject/1308991/
◎片  长 95 分钟
◎导  演 亚当·山克曼
◎主  演 范·迪塞尔 Vin Diesel
      菲丝·福德 Faith Ford
      布兰特妮·斯诺 Brittany Snow
      劳伦·格拉汉姆 Lauren Graham
      麦克斯·泰瑞奥 Max Thieriot

◎简  介 

  大块头有大聪明,这仅仅合适描述席恩(范·迪塞尔 Vin Diesel饰)的水兵特种军队生活。他已经非常神勇,无所事事,是个忠厚威猛的甲士。但现在,席恩却接到一个令他大为头痛的使命:照顾五个年龄跨度从婴儿期到青春期的孩子,庇护他们免受暴徒攻击。
  因而,席恩皱着眉头起头了他的很是使命。这是另一个没有枪火的疆场,席恩必须和五个孩子“周旋斗争”,一边惧怕叛逆期的男孩行为出轨,一边担忧大吵大哭的婴儿饿了肚子湿了尿布。这个铮铮硬汉,在孩子眼前经常一筹莫展,幸亏也渐渐从整齐不齐的状态中理出个眉目来,还气势地当上了孩子舞台剧的导演呢。眼看孩子照顾得渐入佳境,暴徒的脚步声却越来越近了……



  1. Video
  2. ID             : 1
  3. Format           : MPEG Video
  4. Format version         : Version 2
  5. Format profile         : Main@High
  6. Format settings, BVOP      : Yes
  7. Format settings, Matrix      : Default
  8. Format settings, GOP       : M=3, N=15
  9. Codec ID           : V_MPEG2
  10. Codec ID/Info          : MPEG 1 or 2 Video
  11. Duration           : 1 h 35 min
  12. Bit rate mode          : Variable
  13. Bit rate           : 18.4 Mb/s
  14. Maximum bit rate         : 35.0 Mb/s
  15. Width            : 1 920 pixels
  16. Height           : 1 080 pixels
  17. Display aspect ratio       : 16:9
  18. Frame rate mode        : Constant
  19. Frame rate           : 23.976 (24000/1001) FPS
  20. Color space          : YUV
  21. Chroma subsampling       : 4:2:0
  22. Bit depth          : 8 bits
  23. Scan type          : Progressive
  24. Compression mode         : Lossy
  25. Bits/(Pixel*Frame)       : 0.371
  26. Time code of first frame     : 00:00:00:00
  27. Time code source         : Group of pictures header
  28. GOP, Open/Closed         : Open
  29. GOP, Open/Closed of first frame    : Closed
  30. Stream size          : 12.3GB (61%)
  31. Title            : The.Pacifier.2005.1080p.BluRay.REMUX.MPEG-2.LPCM.5.1-FGT
  32. Language           : English
  33. Default            : No
  34. Forced           : No

  35. Audio #1
  36. ID             : 2
  37. Format           : PCM
  38. Codec ID           : 00001000-0000-0100-8000-00AA00389B71
  39. Duration           : 1 h 35 min
  40. Bit rate mode          : Constant
  41. Bit rate           : 4 608 kb/s
  42. Channel(s)           : 6 channels
  43. Channel positions        : Front: L C R, Side: L R, LFE
  44. Sampling rate          : 48.0 kHz
  45. Bit depth          : 16 bits
  46. Stream size          : 3.07GB (15%)
  47. Title            : The.Pacifier.2005.1080p.BluRay.REMUX.MPEG-2.LPCM.5.1-FGT
  48. Language           : English
  49. Default            : Yes
  50. Forced           : No

  51. Audio #2
  52. ID             : 3
  53. Format           : PCM
  54. Codec ID           : 00001000-0000-0100-8000-00AA00389B71
  55. Duration           : 1 h 35 min
  56. Bit rate mode          : Constant
  57. Bit rate           : 4 608 kb/s
  58. Channel(s)           : 6 channels
  59. Channel positions        : Front: L C R, Side: L R, LFE
  60. Sampling rate          : 48.0 kHz
  61. Bit depth          : 16 bits
  62. Stream size          : 3.07GB (15%)
  63. Title            : The.Pacifier.2005.1080p.BluRay.REMUX.MPEG-2.LPCM.5.1-FGT
  64. Language           : Japanese
  65. Default            : No
  66. Forced           : No

  67. Audio #3
  68. ID             : 4
  69. Format           : AC-3
  70. Format/Info          : Audio Coding 3
  71. Format settings, Endianness    : Big
  72. Codec ID           : A_AC3
  73. Duration           : 1 h 35 min
  74. Bit rate mode          : Constant
  75. Bit rate           : 640 kb/s
  76. Channel(s)           : 6 channels
  77. Channel positions        : Front: L C R, Side: L R, LFE
  78. Sampling rate          : 48.0 kHz
  79. Frame rate           : 31.250 FPS (1536 spf)
  80. Bit depth          : 16 bits
  81. Compression mode         : Lossy
  82. Stream size          : 436 MiB (2%)
  83. Title            : The.Pacifier.2005.1080p.BluRay.REMUX.MPEG-2.LPCM.5.1-FGT
  84. Language           : English
  85. Service kind         : Complete Main
  86. Default            : No
  87. Forced           : No

  88. Audio #4
  89. ID             : 5
  90. Format           : AC-3
  91. Format/Info          : Audio Coding 3
  92. Format settings, Endianness    : Big
  93. Codec ID           : A_AC3
  94. Duration           : 1 h 35 min
  95. Bit rate mode          : Constant
  96. Bit rate           : 640 kb/s
  97. Channel(s)           : 6 channels
  98. Channel positions        : Front: L C R, Side: L R, LFE
  99. Sampling rate          : 48.0 kHz
  100. Frame rate           : 31.250 FPS (1536 spf)
  101. Bit depth          : 16 bits
  102. Compression mode         : Lossy
  103. Stream size          : 436 MiB (2%)
  104. Title            : The.Pacifier.2005.1080p.BluRay.REMUX.MPEG-2.LPCM.5.1-FGT
  105. Language           : Japanese
  106. Service kind         : Complete Main
  107. Default            : No
  108. Forced           : No

  109. Audio #5
  110. ID             : 6
  111. Format           : AC-3
  112. Format/Info          : Audio Coding 3
  113. Format settings, Endianness    : Big
  114. Codec ID           : A_AC3
  115. Duration           : 1 h 35 min
  116. Bit rate mode          : Constant
  117. Bit rate           : 640 kb/s
  118. Channel(s)           : 6 channels
  119. Channel positions        : Front: L C R, Side: L R, LFE
  120. Sampling rate          : 48.0 kHz
  121. Frame rate           : 31.250 FPS (1536 spf)
  122. Bit depth          : 16 bits
  123. Compression mode         : Lossy
  124. Stream size          : 436 MiB (2%)
  125. Title            : The.Pacifier.2005.1080p.BluRay.REMUX.MPEG-2.LPCM.5.1-FGT
  126. Language           : Portuguese
  127. Service kind         : Complete Main
  128. Default            : No
  129. Forced           : No

  130. Text #1
  131. ID             : 7
  132. Format           : PGS
  133. Muxing mode          : zlib
  134. Codec ID           : S_HDMV/PGS
  135. Codec ID/Info          : Picture based subtitle format used on BDs/HD-DVDs
  136. Title            : English-PGS
  137. Language           : English
  138. Default            : Yes
  139. Forced           : No

  140. Text #2
  141. ID             : 8
  142. Format           : PGS
  143. Muxing mode          : zlib
  144. Codec ID           : S_HDMV/PGS
  145. Codec ID/Info          : Picture based subtitle format used on BDs/HD-DVDs
  146. Title            : Japanese-PGS
  147. Language           : Japanese
  148. Default            : No
  149. Forced           : No

  150. Text #3
  151. ID             : 9
  152. Format           : PGS
  153. Muxing mode          : zlib
  154. Codec ID           : S_HDMV/PGS
  155. Codec ID/Info          : Picture based subtitle format used on BDs/HD-DVDs
  156. Title            : Chinese-PGS
  157. Language           : Chinese
  158. Default            : No
  159. Forced           : No

  160. Text #4
  161. ID             : 10
  162. Format           : PGS
  163. Muxing mode          : zlib
  164. Codec ID           : S_HDMV/PGS
  165. Codec ID/Info          : Picture based subtitle format used on BDs/HD-DVDs
  166. Title            : Indonesian-PGS
  167. Language           : Indonesian
  168. Default            : No
  169. Forced           : No

  170. Text #5
  171. ID             : 11
  172. Format           : PGS
  173. Muxing mode          : zlib
  174. Codec ID           : S_HDMV/PGS
  175. Codec ID/Info          : Picture based subtitle format used on BDs/HD-DVDs
  176. Title            : Malay-PGS
  177. Language           : Malay
  178. Default            : No
  179. Forced           : No

  180. Text #6
  181. ID             : 12
  182. Format           : PGS
  183. Muxing mode          : zlib
  184. Codec ID           : S_HDMV/PGS
  185. Codec ID/Info          : Picture based subtitle format used on BDs/HD-DVDs
  186. Title            : Korean-PGS
  187. Language           : Korean
  188. Default            : No
  189. Forced           : No

  190. Text #7
  191. ID             : 13
  192. Format           : PGS
  193. Muxing mode          : zlib
  194. Codec ID           : S_HDMV/PGS
  195. Codec ID/Info          : Picture based subtitle format used on BDs/HD-DVDs
  196. Title            : Portuguese-PGS
  197. Language           : Portuguese
  198. Default            : No
  199. Forced           : No

  200. Text #8
  201. ID             : 14
  202. Format           : PGS
  203. Muxing mode          : zlib
  204. Codec ID           : S_HDMV/PGS
  205. Codec ID/Info          : Picture based subtitle format used on BDs/HD-DVDs
  206. Title            : Japanese-PGS
  207. Language           : Japanese
  208. Default            : No
  209. Forced           : No

  210. Menu
  211. 00:00:00.000         : en:Chapter 01
  212. 00:06:02.737         : en:Chapter 02
  213. 00:15:39.188         : en:Chapter 03
  214. 00:20:49.289         : en:Chapter 04
  215. 00:25:05.128         : en:Chapter 05
  216. 00:33:03.648         : en:Chapter 06
  217. 00:36:11.836         : en:Chapter 07
  218. 00:41:02.626         : en:Chapter 08
  219. 00:46:39.213         : en:Chapter 09
  220. 00:53:54.439         : en:Chapter 10
  221. 00:57:30.405         : en:Chapter 11
  222. 01:01:50.998         : en:Chapter 12
  223. 01:09:55.316         : en:Chapter 13
  224. 01:19:56.458         : en:Chapter 14
  225. 01:25:33.837         : en:Chapter 15
  226. 01:29:53.805         : en:Chapter 16
  227. 01:35:19.630         : en:Chapter 17



复制代码
复制代码
003358l4dd8d4e0z94a4qx.jpg 003358wkff783iblgf1lx0.jpg 003358y65yy0o46s5oc34o.jpg 003358wrekr85kexx0nggu.jpg 003358gdqzddkkqrieqtm5.jpg 003358tlloqqik6j2ob5lq.jpg







回复

使用道具 举报

懒得打字嘛,点击右侧快捷回复 【右侧内容,后台自定义】
您需要登录后才可以回帖 登录 | 立即加入

本版积分规则

Archiver| |网站地图

Copyright © 2024 Comsenz Inc. Powered by 蓝光电影网

本站内容由用户自主分享和转载自互联网,转载目的在于传递更多信息,并不代表本网赞同其观点和对其真实性负责。

如有侵权、违反国家法律政策行为,请联系我们,我们会第一时间及时清除和处理!

举报反馈邮箱:4k1080.com@gmail.com

快速回复 返回顶部 返回列表