找回密码

查看: 2806|回复: 0

[剧情] 动物园长的夫人/园长夫人:动物园的奇迹 The.Zookeepers.Wife.2017.1080p.BluRay.REMUX.AVC.DTS-HD.MA.5.1-FGT 33.10GB

[复制链接]
蓝光币
1974
发表于 2017-12-20 23:24:39 | 显示全部楼层 |阅读模式
004028sdr3pn2cxx2d87m8.jpg
◎译  名 动物园长的夫人 / 园长夫人:动物园的奇迹
◎片  名 动物园长的夫人 The Zookeeper's Wife
◎年  代 2017
◎国  家 捷克 / 英国 / 美国
◎类  别 剧情 / 列传 / 历史 / 战争
◎语  言 英语
◎上映日期 2017-03-07(华沙-首映) / 2017-03-31(美国) / 2017-04-28(英国)
◎IMDb评分7.1/10 from 4,417 users
◎IMDb链接http://www.imdb.com/title/tt1730768/
◎豆瓣评分 6.7/10 from 351 users
◎豆瓣链接 https://movie.douban.com/subject/24522026/
◎片  长 124分钟
◎导  演 妮琪·卡罗
◎主  演 杰西卡·查斯坦 Jessica Chastain
      约翰·海尔登贝格 Johan Heldenbergh
      丹尼尔·布鲁赫 Daniel Brühl
      蒂莫西·拉德福德 Timothy Radford
      伊芙雷特·多 Efrat Dor
      伊多·戈德堡 Iddo Goldberg
      希拉·哈斯 Shira Haas
      迈克尔·麦克埃尔哈顿 Michael McElhatton
      瓦尔·马罗库 Val Maloku
      玛尔塔·艾索瓦 Martha Issová
      丹尼尔·雷提莫斯基 Daniel Ratimorsky
      弗雷德里克·普雷斯顿 Frederick Preston
      西奥·普雷斯顿 Theo Preston
      戈兰·卡斯蒂克 Goran Kostic

◎简  介 

  据最新消息,《北方风云》、《鲸骑士》女导演妮基·卡罗将执导拍摄一部报告二战期间纳粹屠杀犹太人题材的影片《动物园长的夫人》,该片改编自戴安娜·阿克曼同名小说,已肯定由“劳模姐”杰西卡·查斯坦、丹尼尔·布鲁赫(《无耻忘八》) 、约翰·海尔登贝格主演,《雪花与秘扇》编剧安吉拉·沃克曼负责剧本,别的焦点影业和举世影业则别离获得了该片北美以与欧洲的刊行版权。 原著小说《动物园长的夫人》的故事发生在二战期间的华沙,在德军斯图卡轰炸机的肆虐下酿成了一片废墟,城里的动物园也一路遭了殃,动物死了一泰半。动物园园长简和他的夫人安东尼娜起头将犹太人偷偷带进空荡荡的兽栏。动物牢笼变身为诺亚方舟,潜藏在兽栏内的人以动物为代号,而动物却起了人的名字。每当夜幕来临,“旅客们”便走出黑暗,一同用餐、扳谈;碰到少有海不扬波的风景,还能来场钢琴音乐会。简活跃在波兰的奥秘抵抗构造中,他将弹药埋在大象的围栏里,将炸药藏在水獭、獾、小土狼、猞猁取代吧这些动物身上……



  1. Video
  2. ID             : 1
  3. Format           : AVC
  4. Format/Info          : Advanced Video Codec
  5. Format profile         : [email]High@L4.1[/email]
  6. Format settings, CABAC       : Yes
  7. Format settings, ReFrames      : 4 frames
  8. Codec ID           : V_MPEG4/ISO/AVC
  9. Duration           : 2 h 6 min
  10. Bit rate mode          : Variable
  11. Maximum bit rate         : 35.0 Mb/s
  12. Width            : 1 920 pixels
  13. Height           : 1 080 pixels
  14. Display aspect ratio       : 16:9
  15. Frame rate mode        : Constant
  16. Frame rate           : 23.976 (24000/1001) FPS
  17. Color space          : YUV
  18. Chroma subsampling       : 4:2:0
  19. Bit depth          : 8 bits
  20. Scan type          : Progressive
  21. Title            : The.Zookeepers.Wife.2017.1080p.BluRay.REMUX.AVC.DTS-HD.MA.5.1-FGT
  22. Language           : English
  23. Default            : No
  24. Forced           : No

  25. Audio #1
  26. ID             : 2
  27. Format           : DTS
  28. Format/Info          : Digital Theater Systems
  29. Format profile         : MA / Core
  30. Mode             : 16
  31. Format settings, Endianness    : Big
  32. Codec ID           : A_DTS
  33. Duration           : 2 h 6 min
  34. Bit rate mode          : Variable / Constant
  35. Bit rate           : Unknown / 1 509 kb/s
  36. Channel(s)           : 6 channels
  37. Channel positions        : Front: L C R, Side: L R, LFE
  38. Sampling rate          : 48.0 kHz
  39. Frame rate           : 93.750 FPS (512 spf)
  40. Bit depth          : 24 bits
  41. Compression mode         : Lossless / Lossy
  42. Title            : The.Zookeepers.Wife.2017.1080p.BluRay.REMUX.AVC.DTS-HD.MA.5.1-FGT
  43. Language           : English
  44. Default            : Yes
  45. Forced           : No

  46. Audio #2
  47. ID             : 3
  48. Format           : DTS
  49. Format/Info          : Digital Theater Systems
  50. Mode             : 16
  51. Format settings, Endianness    : Big
  52. Codec ID           : A_DTS
  53. Duration           : 2 h 6 min
  54. Bit rate mode          : Constant
  55. Bit rate           : 1 509 kb/s
  56. Channel(s)           : 6 channels
  57. Channel positions        : Front: L C R, Side: L R, LFE
  58. Sampling rate          : 48.0 kHz
  59. Frame rate           : 93.750 FPS (512 spf)
  60. Bit depth          : 24 bits
  61. Compression mode         : Lossy
  62. Stream size          : 1.33GB (4%)
  63. Title            : The.Zookeepers.Wife.2017.1080p.BluRay.REMUX.AVC.DTS-HD.MA.5.1-FGT
  64. Language           : English
  65. Default            : No
  66. Forced           : No

  67. Audio #3
  68. ID             : 4
  69. Format           : DTS
  70. Format/Info          : Digital Theater Systems
  71. Mode             : 16
  72. Format settings, Endianness    : Big
  73. Codec ID           : A_DTS
  74. Duration           : 2 h 6 min
  75. Bit rate mode          : Constant
  76. Bit rate           : 768 kb/s
  77. Channel(s)           : 6 channels
  78. Channel positions        : Front: L C R, Side: L R, LFE
  79. Sampling rate          : 48.0 kHz
  80. Frame rate           : 93.750 FPS (512 spf)
  81. Bit depth          : 24 bits
  82. Compression mode         : Lossy
  83. Stream size          : 695 MiB (2%)
  84. Title            : The.Zookeepers.Wife.2017.1080p.BluRay.REMUX.AVC.DTS-HD.MA.5.1-FGT
  85. Language           : Spanish
  86. Default            : No
  87. Forced           : No

  88. Audio #4
  89. ID             : 5
  90. Format           : AC-3
  91. Format/Info          : Audio Coding 3
  92. Mode             : Dolby Digital
  93. Format settings, Endianness    : Big
  94. Codec ID           : A_AC3
  95. Duration           : 2 h 6 min
  96. Bit rate mode          : Constant
  97. Bit rate           : 192 kb/s
  98. Channel(s)           : 2 channels
  99. Channel positions        : Front: L R
  100. Sampling rate          : 48.0 kHz
  101. Frame rate           : 31.250 FPS (1536 spf)
  102. Bit depth          : 16 bits
  103. Compression mode         : Lossy
  104. Stream size          : 174 MiB (1%)
  105. Title            : The.Zookeepers.Wife.2017.1080p.BluRay.REMUX.AVC.DTS-HD.MA.5.1-FGT
  106. Language           : English
  107. Service kind         : Complete Main
  108. Default            : No
  109. Forced           : No

  110. Text #1
  111. ID             : 6
  112. Format           : PGS
  113. Muxing mode          : zlib
  114. Codec ID           : S_HDMV/PGS
  115. Codec ID/Info          : Picture based subtitle format used on BDs/HD-DVDs
  116. Title            : English-PGS
  117. Language           : English
  118. Default            : Yes
  119. Forced           : No

  120. Text #2
  121. ID             : 7
  122. Format           : PGS
  123. Muxing mode          : zlib
  124. Codec ID           : S_HDMV/PGS
  125. Codec ID/Info          : Picture based subtitle format used on BDs/HD-DVDs
  126. Title            : Spanish-PGS
  127. Language           : Spanish
  128. Default            : No
  129. Forced           : No

  130. Text #3
  131. ID             : 8
  132. Format           : PGS
  133. Muxing mode          : zlib
  134. Codec ID           : S_HDMV/PGS
  135. Codec ID/Info          : Picture based subtitle format used on BDs/HD-DVDs
  136. Title            : French-PGS
  137. Language           : French
  138. Default            : No
  139. Forced           : No

  140. Text #4
  141. ID             : 9
  142. Format           : PGS
  143. Muxing mode          : zlib
  144. Codec ID           : S_HDMV/PGS
  145. Codec ID/Info          : Picture based subtitle format used on BDs/HD-DVDs
  146. Title            : Spanish-FORCED-PGS
  147. Language           : Spanish
  148. Default            : No
  149. Forced           : No

  150. Menu
  151. 00:00:00.000         : en:Chapter 01
  152. 00:04:55.336         : en:Chapter 02
  153. 00:14:23.112         : en:Chapter 03
  154. 00:21:16.942         : en:Chapter 04
  155. 00:29:50.246         : en:Chapter 05
  156. 00:35:39.679         : en:Chapter 06
  157. 00:40:25.589         : en:Chapter 07
  158. 00:49:46.191         : en:Chapter 08
  159. 00:54:01.196         : en:Chapter 09
  160. 01:00:25.663         : en:Chapter 10
  161. 01:06:21.686         : en:Chapter 11
  162. 01:11:48.929         : en:Chapter 12
  163. 01:19:45.864         : en:Chapter 13
  164. 01:25:10.647         : en:Chapter 14
  165. 01:30:12.448         : en:Chapter 15
  166. 01:36:42.421         : en:Chapter 16
  167. 01:39:32.925         : en:Chapter 17
  168. 01:46:18.372         : en:Chapter 18
  169. 01:55:17.160         : en:Chapter 19
  170. 02:01:44.297         : en:Chapter 20



复制代码
复制代码
004028odovvpa3dfz6ycov.jpg 004028bmf24vrzaoazl714.jpg 004028hnmkqmuk8kku1oa8.jpg 004028wbgb8v1uz1157uvv.jpg 004028jhy97bk294kkhiz9.jpg 004028so24oaa4uplnz4jr.jpg

                                




回复

使用道具 举报

懒得打字嘛,点击右侧快捷回复 【右侧内容,后台自定义】
您需要登录后才可以回帖 登录 | 立即加入

本版积分规则

Archiver| |网站地图

Copyright © 2024 Comsenz Inc. Powered by 蓝光电影网

本站内容由用户自主分享和转载自互联网,转载目的在于传递更多信息,并不代表本网赞同其观点和对其真实性负责。

如有侵权、违反国家法律政策行为,请联系我们,我们会第一时间及时清除和处理!

举报反馈邮箱:4k1080.com@gmail.com

快速回复 返回顶部 返回列表