找回密码

查看: 3165|回复: 0

[恐怖] 救僵清道夫/尸奔日记 Vampire.Cleanup.Department.2017.CHINESE.1080p.BluRay.REMUX.AVC.TrueHD.5.1-FGT 17.57GB

[复制链接]
蓝光币
1992
发表于 2017-12-20 23:32:02 | 显示全部楼层 |阅读模式
005051tctyxyt9i5xx4wec.jpg
◎译  名 救僵清道夫 / 尸奔日志 / Vampire Cleanup Department
◎片  名 救僵清道夫 救殭清道夫
◎年  代 2017
◎国  家 香港
◎类  别 笑剧 / 行动 / 可骇
◎语  言 粤语 / 汉语普通话
◎上映日期 2017-03-16(香港)
◎IMDb评分6.8/10 from 75 users
◎IMDb链接http://www.imdb.com/title/tt6270524/
◎豆瓣评分 6.5/10 from 137 users
◎豆瓣链接 https://movie.douban.com/subject/26759783/
◎片  长 94分钟
◎导  演 甄栢荣 / 赵善恒
◎主  演 钱小豪 Siu-hou Chin
      蔡瀚亿 Babyjohn Choi
      林明祯 Min-Chen Lin
      吴耀汉 Richard Ng
      邵音音 Yin-Yin Shaw
      袁祥仁 Cheung-Yan Yuen
      赵学而 Bondy Chiu
      黃奕晨 Dixon Wong
      罗莽 Meng Lo
      曾志伟 Eric Tsang
      詹瑞文 Sui-man Chim
      欧锦棠 Stephen Au
      赵善恒 Sin-Hang Chiu
      谭杏蓝 Hana Tam
      李尚正 Sheung-ching Lee

◎简  介 

  香港開埠以來,一向有殭屍出沒。城市隱藏著一個捉殭屍的奥秘組織— 食環署特別行動組,簡稱VCD。三更掃街的清道夫其實是殭屍獵人,庞大的渣滓桶裡藏著剛收服的殭屍,旁人避而遠之的渣滓房…正正就是他們奥秘基地!
  善心宅男張春季(蔡瀚億飾)偶然被VCD搭救,組織領頭(吳耀漢飾)發現他的血能抗屍毒,認定其潛力無限,要武功高強的打手葉之秋(錢小豪飾)、技術支援組老姜(袁祥仁飾)與大舊駒(羅莽飾)向他傳授畢生所學,繼承組織使命﹗
  一次組織行動,張春季不忍傷害标致女殭屍小夏(林明禎飾),違反号令與她共住一室,引來百年老殭屍王的致命攻撃……



  1. Video
  2. ID             : 1
  3. Format           : AVC
  4. Format/Info          : Advanced Video Codec
  5. Format profile         : [email]High@L4.1[/email]
  6. Format settings, CABAC       : Yes
  7. Format settings, ReFrames      : 4 frames
  8. Codec ID           : V_MPEG4/ISO/AVC
  9. Duration           : 1 h 33 min
  10. Bit rate mode          : Variable
  11. Maximum bit rate         : 30.0 Mb/s
  12. Width            : 1 920 pixels
  13. Height           : 1 080 pixels
  14. Display aspect ratio       : 16:9
  15. Frame rate mode        : Constant
  16. Frame rate           : 24.000 FPS
  17. Standard           : NTSC
  18. Color space          : YUV
  19. Chroma subsampling       : 4:2:0
  20. Bit depth          : 8 bits
  21. Scan type          : Progressive
  22. Title            : Vampire.Cleanup.Department.2017.CHINESE.1080p.BluRay.REMUX.AVC.TrueHD.5.1-FGT
  23. Language           : English
  24. Default            : No
  25. Forced           : No
  26. Color range          : Limited
  27. Color primaries        : BT.709
  28. Transfer characteristics     : BT.709
  29. Matrix coefficients        : BT.709

  30. Audio #1
  31. ID             : 2
  32. Format           : TrueHD
  33. Codec ID           : A_TRUEHD
  34. Duration           : 1 h 33 min
  35. Bit rate mode          : Variable
  36. Maximum bit rate         : 4 890 kb/s
  37. Channel(s)           : 6 channels
  38. Channel positions        : Front: L C R, Side: L R, LFE
  39. Sampling rate          : 96.0 kHz
  40. Frame rate           : 2 400.000 FPS (40 spf)
  41. Compression mode         : Lossless
  42. Title            : Vampire.Cleanup.Department.2017.CHINESE.1080p.BluRay.REMUX.AVC.TrueHD.5.1-FGT
  43. Language           : Chinese
  44. Default            : Yes
  45. Forced           : No

  46. Audio #2
  47. ID             : 3
  48. Format           : AC-3
  49. Format/Info          : Audio Coding 3
  50. Format settings, Endianness    : Big
  51. Codec ID           : A_AC3
  52. Duration           : 1 h 33 min
  53. Bit rate mode          : Constant
  54. Bit rate           : 640 kb/s
  55. Channel(s)           : 6 channels
  56. Channel positions        : Front: L C R, Side: L R, LFE
  57. Sampling rate          : 48.0 kHz
  58. Frame rate           : 31.250 FPS (1536 spf)
  59. Bit depth          : 16 bits
  60. Compression mode         : Lossy
  61. Stream size          : 429 MiB (2%)
  62. Title            : Vampire.Cleanup.Department.2017.CHINESE.1080p.BluRay.REMUX.AVC.TrueHD.5.1-FGT
  63. Language           : Chinese
  64. Service kind         : Complete Main
  65. Default            : No
  66. Forced           : No

  67. Audio #3
  68. ID             : 4
  69. Format           : AC-3
  70. Format/Info          : Audio Coding 3
  71. Format settings, Endianness    : Big
  72. Codec ID           : A_AC3
  73. Duration           : 1 h 33 min
  74. Bit rate mode          : Constant
  75. Bit rate           : 640 kb/s
  76. Channel(s)           : 6 channels
  77. Channel positions        : Front: L C R, Side: L R, LFE
  78. Sampling rate          : 48.0 kHz
  79. Frame rate           : 31.250 FPS (1536 spf)
  80. Bit depth          : 16 bits
  81. Compression mode         : Lossy
  82. Stream size          : 429 MiB (2%)
  83. Title            : Vampire.Cleanup.Department.2017.CHINESE.1080p.BluRay.REMUX.AVC.TrueHD.5.1-FGT
  84. Language           : Chinese
  85. Service kind         : Complete Main
  86. Default            : No
  87. Forced           : No

  88. Text #1
  89. ID             : 5
  90. Format           : PGS
  91. Muxing mode          : zlib
  92. Codec ID           : S_HDMV/PGS
  93. Codec ID/Info          : Picture based subtitle format used on BDs/HD-DVDs
  94. Title            : English-PGS
  95. Language           : English
  96. Default            : Yes
  97. Forced           : No

  98. Text #2
  99. ID             : 6
  100. Format           : PGS
  101. Muxing mode          : zlib
  102. Codec ID           : S_HDMV/PGS
  103. Codec ID/Info          : Picture based subtitle format used on BDs/HD-DVDs
  104. Title            : Chinese-PGS
  105. Language           : Chinese
  106. Default            : No
  107. Forced           : No

  108. Text #3
  109. ID             : 7
  110. Format           : PGS
  111. Muxing mode          : zlib
  112. Codec ID           : S_HDMV/PGS
  113. Codec ID/Info          : Picture based subtitle format used on BDs/HD-DVDs
  114. Title            : Chinese-PGS
  115. Language           : Chinese
  116. Default            : No
  117. Forced           : No

  118. Menu
  119. 00:00:00.000         : en:Chapter 01
  120. 00:08:54.625         : en:Chapter 02
  121. 00:16:32.291         : en:Chapter 03
  122. 00:23:49.666         : en:Chapter 04
  123. 00:32:49.041         : en:Chapter 05
  124. 00:40:31.291         : en:Chapter 06
  125. 00:47:21.416         : en:Chapter 07
  126. 00:55:56.625         : en:Chapter 08
  127. 01:02:33.666         : en:Chapter 09
  128. 01:10:52.250         : en:Chapter 10
  129. 01:18:28.916         : en:Chapter 11
  130. 01:27:46.291         : en:Chapter 12



复制代码
复制代码
005051jbjqo8jnq36xqaaj.jpg 005051yug1iyskjzxf0i48.jpg 005051pteig4zrptqefhgf.jpg 005051jnlvslbsitdvnsns.jpg 005051vpykikikkryp0skd.jpg 005051vbs8nqyeynswiinb.jpg

                                



回复

使用道具 举报

懒得打字嘛,点击右侧快捷回复 【右侧内容,后台自定义】
您需要登录后才可以回帖 登录 | 立即加入

本版积分规则

Archiver| |网站地图

Copyright © 2024 Comsenz Inc. Powered by 蓝光电影网

本站内容由用户自主分享和转载自互联网,转载目的在于传递更多信息,并不代表本网赞同其观点和对其真实性负责。

如有侵权、违反国家法律政策行为,请联系我们,我们会第一时间及时清除和处理!

举报反馈邮箱:4k1080.com@gmail.com

快速回复 返回顶部 返回列表