找回密码

查看: 6252|回复: 3

[剧情] 此情此刻 The.Moment.2016.CHINESE.1080p.BluRay.REMUX.AVC.TrueHD.5.1-FGT 20.28GB

[复制链接]
蓝光币
1982
发表于 2017-12-20 23:32:44 | 显示全部楼层 |阅读模式
005200oe14fmgfff1rxxem.jpg
◎译  名 此情现在 / The Moment / Bei ching bei hak
◎片  名 此情现在
◎年  代 2016
◎国  家 香港
◎类  别 剧情 / 恋爱
◎语  言 粤语 / 汉语普通话
◎上映日期 2017-06-09(中国大陆) / 2016-09-15(香港)
◎IMDb评分6.3/10 from 9 users
◎IMDb链接http://www.imdb.com/title/tt6029724/
◎豆瓣评分 5.5/10 from 442 users
◎豆瓣链接 https://movie.douban.com/subject/26801752/
◎片  长 90分钟
◎导  演 黄国辉
◎主  演 林家栋 Ka Tung Lam
      陈静 Dada Chan
      关楚耀 Kelvin Kwan Chor-yiu
      潘灿良 Chan-Leung Poon
      孙耀威 Eric Suen
      郭伟亮 Eric Kwok
      叶佩雯 Grace Yip
      江嘉敏 Kaman Kong
      李幸倪 Gin Lee
      吴耀汉 Richard Ng
      张可颐 Maggie Cheung Ho Yee
      江海迦 Aga
      麦家瑜 Keeva Mak
      孙自佑 DennisSun
      胡佳嬑 Hayley
      曾善美 meimei
      陈伟雄 Phat Chan
      李凱賢 Julius Brian
      叶晴晴 Robynn Yip
      孙晓慧 Kendy Sun
      邵音音 Yin-Yin Shaw
      陈少霞 Cherie Chan
      周殷廷 Chau Yan Ting
      谭玉瑛 Yuk Ying Tam
      蓝奕邦 Pong Nan
      陈嘉欣 Gelly Chen
      刘亦宁 Lau Yik Ning
      赵美琪 Mena Chiu
      布志綸 Alan Po
      周家怡 Catherine Chau
      陆骏光 Alan Luk Chun-Kwong
      麦子乐 Bryant Ji-Lok Mak
      何咏雯 Eunice Ho
      何华超 Tony Ho

◎简  介 

  这是四段关于情、关于重新动身的故事。由「丽诚影室」这拍照馆、里面的相片和人物相互牵引。四个故事同时展开,大家于拍照馆内穿插出现,相互影响。



  1. Video
  2. ID             : 1
  3. Format           : AVC
  4. Format/Info          : Advanced Video Codec
  5. Format profile         : [email]High@L4.1[/email]
  6. Format settings, CABAC       : Yes
  7. Format settings, ReFrames      : 4 frames
  8. Codec ID           : V_MPEG4/ISO/AVC
  9. Duration           : 1 h 28 min
  10. Bit rate mode          : Variable
  11. Maximum bit rate         : 35.0 Mb/s
  12. Width            : 1 920 pixels
  13. Height           : 1 080 pixels
  14. Display aspect ratio       : 16:9
  15. Frame rate mode        : Constant
  16. Frame rate           : 24.000 FPS
  17. Standard           : NTSC
  18. Color space          : YUV
  19. Chroma subsampling       : 4:2:0
  20. Bit depth          : 8 bits
  21. Scan type          : Progressive
  22. Title            : The.Moment.2016.CHINESE.1080p.BluRay.REMUX.AVC.TrueHD.5.1-FGT
  23. Language           : English
  24. Default            : No
  25. Forced           : No
  26. Color range          : Limited
  27. Color primaries        : BT.709
  28. Transfer characteristics     : BT.709
  29. Matrix coefficients        : BT.709

  30. Audio #1
  31. ID             : 2
  32. Format           : TrueHD
  33. Codec ID           : A_TRUEHD
  34. Duration           : 1 h 28 min
  35. Bit rate mode          : Variable
  36. Maximum bit rate         : 4 266 kb/s
  37. Channel(s)           : 6 channels
  38. Channel positions        : Front: L C R, Side: L R, LFE
  39. Sampling rate          : 96.0 kHz
  40. Frame rate           : 2 400.000 FPS (40 spf)
  41. Compression mode         : Lossless
  42. Title            : The.Moment.2016.CHINESE.1080p.BluRay.REMUX.AVC.TrueHD.5.1-FGT
  43. Language           : Chinese
  44. Default            : Yes
  45. Forced           : No

  46. Audio #2
  47. ID             : 3
  48. Format           : AC-3
  49. Format/Info          : Audio Coding 3
  50. Format settings, Endianness    : Big
  51. Codec ID           : A_AC3
  52. Duration           : 1 h 28 min
  53. Bit rate mode          : Constant
  54. Bit rate           : 640 kb/s
  55. Channel(s)           : 6 channels
  56. Channel positions        : Front: L C R, Side: L R, LFE
  57. Sampling rate          : 48.0 kHz
  58. Frame rate           : 31.250 FPS (1536 spf)
  59. Bit depth          : 16 bits
  60. Compression mode         : Lossy
  61. Stream size          : 405 MiB (2%)
  62. Title            : The.Moment.2016.CHINESE.1080p.BluRay.REMUX.AVC.TrueHD.5.1-FGT
  63. Language           : Chinese
  64. Service kind         : Complete Main
  65. Default            : No
  66. Forced           : No

  67. Audio #3
  68. ID             : 4
  69. Format           : TrueHD
  70. Codec ID           : A_TRUEHD
  71. Duration           : 1 h 28 min
  72. Bit rate mode          : Variable
  73. Maximum bit rate         : 4 368 kb/s
  74. Channel(s)           : 6 channels
  75. Channel positions        : Front: L C R, Side: L R, LFE
  76. Sampling rate          : 96.0 kHz
  77. Frame rate           : 2 400.000 FPS (40 spf)
  78. Compression mode         : Lossless
  79. Title            : The.Moment.2016.CHINESE.1080p.BluRay.REMUX.AVC.TrueHD.5.1-FGT
  80. Language           : Chinese
  81. Default            : No
  82. Forced           : No

  83. Audio #4
  84. ID             : 5
  85. Format           : AC-3
  86. Format/Info          : Audio Coding 3
  87. Format settings, Endianness    : Big
  88. Codec ID           : A_AC3
  89. Duration           : 1 h 28 min
  90. Bit rate mode          : Constant
  91. Bit rate           : 640 kb/s
  92. Channel(s)           : 6 channels
  93. Channel positions        : Front: L C R, Side: L R, LFE
  94. Sampling rate          : 48.0 kHz
  95. Frame rate           : 31.250 FPS (1536 spf)
  96. Bit depth          : 16 bits
  97. Compression mode         : Lossy
  98. Stream size          : 405 MiB (2%)
  99. Title            : The.Moment.2016.CHINESE.1080p.BluRay.REMUX.AVC.TrueHD.5.1-FGT
  100. Language           : Chinese
  101. Service kind         : Complete Main
  102. Default            : No
  103. Forced           : No

  104. Text #1
  105. ID             : 6
  106. Format           : PGS
  107. Muxing mode          : zlib
  108. Codec ID           : S_HDMV/PGS
  109. Codec ID/Info          : Picture based subtitle format used on BDs/HD-DVDs
  110. Title            : English-PGS
  111. Language           : English
  112. Default            : Yes
  113. Forced           : No

  114. Text #2
  115. ID             : 7
  116. Format           : PGS
  117. Muxing mode          : zlib
  118. Codec ID           : S_HDMV/PGS
  119. Codec ID/Info          : Picture based subtitle format used on BDs/HD-DVDs
  120. Title            : Chinese-PGS
  121. Language           : Chinese
  122. Default            : No
  123. Forced           : No

  124. Menu
  125. 00:00:00.000         : en:Chapter 01
  126. 00:06:12.500         : en:Chapter 02
  127. 00:16:36.375         : en:Chapter 03
  128. 00:21:54.791         : en:Chapter 04
  129. 00:29:42.541         : en:Chapter 05
  130. 00:37:59.958         : en:Chapter 06
  131. 00:44:39.500         : en:Chapter 07
  132. 00:49:41.458         : en:Chapter 08
  133. 00:59:57.250         : en:Chapter 09
  134. 01:07:38.541         : en:Chapter 10
  135. 01:14:06.666         : en:Chapter 11
  136. 01:19:48.541         : en:Chapter 12



复制代码
复制代码
005200sz2664vv2nkzvnw6.jpg 005200vh7dl22u2chonu55.jpg 005200c2lu5le40c26t62g.jpg 005200oqvuaq2av12a9zcp.jpg 005200hwagblluk8xbzwmm.jpg 005200g73ya1vooeeyvtg6.jpg





回复

使用道具 举报

蓝光币
2
发表于 2021-11-6 20:25:20 | 显示全部楼层
喜欢许巍
回复

使用道具 举报

懒得打字嘛,点击右侧快捷回复 【右侧内容,后台自定义】
您需要登录后才可以回帖 登录 | 立即加入

本版积分规则

Archiver| |网站地图

Copyright © 2024 Comsenz Inc. Powered by 蓝光电影网

本站内容由用户自主分享和转载自互联网,转载目的在于传递更多信息,并不代表本网赞同其观点和对其真实性负责。

如有侵权、违反国家法律政策行为,请联系我们,我们会第一时间及时清除和处理!

举报反馈邮箱:4k1080.com@gmail.com

快速回复 返回顶部 返回列表