找回密码

查看: 3380|回复: 3

[动画] 攻壳机动队2:无罪 Ghost.In.The.Shell.2.Innocence.2004.1080p.BluRay.REMUX.AVC.DTS-HD.MA.5.1-FGT 26.30GB

[复制链接]
蓝光币
1971
发表于 2017-12-20 23:41:00 | 显示全部楼层 |阅读模式
100705zwtol2ldysdtldtw.jpg
◎译  名 攻壳灵活队2:无罪 / Ghost in the Shell 2: Innocence
◎片  名 攻壳灵活队2:无罪 攻殻機動隊2 イノセンス
◎年  代 2004
◎国  家 日本
◎类  别 剧情 / 科幻 / 动画
◎语  言 日语 / 粤语
◎上映日期 2004-03-06(日本)
◎IMDb评分7.6/10 from 30,234 users
◎IMDb链接http://www.imdb.com/title/tt0347246/
◎豆瓣评分 9.0/10 from 31648 users
◎豆瓣链接 https://movie.douban.com/subject/1291566/
◎片  长 100分钟
◎导  演 押井守
◎主  演 田中敦子 Atsuko Tanaka
      大塚明夫 Akio ?tsuka
      山寺宏一 K?ichi Yamadera
      竹中直人 Naoto Takenaka
      榊原良子 Yoshiko Sakakibara
      大木民夫 Tamio ?ki

◎简  介 

  草薙素子以后,巴特与侦察身世的陀古萨结为同伴。近期发生多起机械人偶杀戮仆人继而自杀的事务,由于受害者家属均无公诉,且死者中有政客与公安官员,因而公安9课派出巴特小组观察此案。杀大家偶皆为荒凉地带公司出品的哈德莉机型,应部分顾客要求,该机型同时具有同性玩伴的功用,巴特从荒凉地带公司出货官遇害动手,卷入与黑帮的战役,时代有人入侵他的大脑,使其自残。
  巴特决议直奔荒凉地带总部,他与陀古萨造访了择捉岛上的黑客基姆,后者布下系统圈套,幸有素子提出警告避免陀古萨堕入控制。依靠基姆这条线索,巴特登上了荒凉地带公司设立在海上的工场船,素子再次来临他的身旁,与其并肩作战。

◎获奖情况 

  第57届戛纳电影节 (2004)
  主比赛单元 金棕榈奖(提名) 押井守

  第32届动画安妮奖 (2005)
  最好动画长片(提名)
  最好导演(提名) 押井守
  最好配乐(提名) 川井宪次 /川井宪次
  最好动画结果(提名) Hisashi Ezura



  1. Video
  2. ID             : 1
  3. Format           : AVC
  4. Format/Info          : Advanced Video Codec
  5. Format profile         : [email]High@L4.1[/email]
  6. Format settings, CABAC       : Yes
  7. Format settings, ReFrames      : 3 frames
  8. Codec ID           : V_MPEG4/ISO/AVC
  9. Duration           : 1 h 39 min
  10. Bit rate mode          : Variable
  11. Maximum bit rate         : 36.0 Mb/s
  12. Width            : 1 920 pixels
  13. Height           : 1 080 pixels
  14. Display aspect ratio       : 16:9
  15. Frame rate mode        : Constant
  16. Frame rate           : 23.976 (24000/1001) FPS
  17. Standard           : NTSC
  18. Color space          : YUV
  19. Chroma subsampling       : 4:2:0
  20. Bit depth          : 8 bits
  21. Scan type          : Progressive
  22. Title            : Ghost.In.The.Shell.2.Innocence.2004.1080p.BluRay.REMUX.AVC.DTS-HD.MA.5.1-FGT
  23. Language           : English
  24. Default            : No
  25. Forced           : No
  26. Color range          : Limited
  27. Color primaries        : BT.709
  28. Transfer characteristics     : BT.709
  29. Matrix coefficients        : BT.709

  30. Audio #1
  31. ID             : 2
  32. Format           : DTS
  33. Format/Info          : Digital Theater Systems
  34. Format profile         : MA / Core
  35. Mode             : 16
  36. Format settings, Endianness    : Big
  37. Codec ID           : A_DTS
  38. Duration           : 1 h 39 min
  39. Bit rate mode          : Variable / Constant
  40. Bit rate           : Unknown / 768 kb/s
  41. Channel(s)           : 6 channels
  42. Channel positions        : Front: L C R, Side: L R, LFE
  43. Sampling rate          : 48.0 kHz
  44. Frame rate           : 93.750 FPS (512 spf)
  45. Bit depth          : 16 bits
  46. Compression mode         : Lossless / Lossy
  47. Title            : Ghost.In.The.Shell.2.Innocence.2004.1080p.BluRay.REMUX.AVC.DTS-HD.MA.5.1-FGT
  48. Language           : English
  49. Default            : Yes
  50. Forced           : No

  51. Audio #2
  52. ID             : 3
  53. Format           : DTS
  54. Format/Info          : Digital Theater Systems
  55. Mode             : 16
  56. Format settings, Endianness    : Big
  57. Codec ID           : A_DTS
  58. Duration           : 1 h 39 min
  59. Bit rate mode          : Constant
  60. Bit rate           : 768 kb/s
  61. Channel(s)           : 6 channels
  62. Channel positions        : Front: L C R, Side: L R, LFE
  63. Sampling rate          : 48.0 kHz
  64. Frame rate           : 93.750 FPS (512 spf)
  65. Bit depth          : 16 bits
  66. Compression mode         : Lossy
  67. Stream size          : 549 MiB (2%)
  68. Title            : Ghost.In.The.Shell.2.Innocence.2004.1080p.BluRay.REMUX.AVC.DTS-HD.MA.5.1-FGT
  69. Language           : English
  70. Default            : No
  71. Forced           : No

  72. Audio #3
  73. ID             : 4
  74. Format           : DTS
  75. Format/Info          : Digital Theater Systems
  76. Format profile         : MA / Core
  77. Mode             : 16
  78. Format settings, Endianness    : Big
  79. Codec ID           : A_DTS
  80. Duration           : 1 h 39 min
  81. Bit rate mode          : Variable / Constant
  82. Bit rate           : Unknown / 768 kb/s
  83. Channel(s)           : 6 channels
  84. Channel positions        : Front: L C R, Side: L R, LFE
  85. Sampling rate          : 48.0 kHz
  86. Frame rate           : 93.750 FPS (512 spf)
  87. Bit depth          : 16 bits
  88. Compression mode         : Lossless / Lossy
  89. Title            : Ghost.In.The.Shell.2.Innocence.2004.1080p.BluRay.REMUX.AVC.DTS-HD.MA.5.1-FGT
  90. Language           : Japanese
  91. Default            : No
  92. Forced           : No

  93. Audio #4
  94. ID             : 5
  95. Format           : DTS
  96. Format/Info          : Digital Theater Systems
  97. Mode             : 16
  98. Format settings, Endianness    : Big
  99. Codec ID           : A_DTS
  100. Duration           : 1 h 39 min
  101. Bit rate mode          : Constant
  102. Bit rate           : 768 kb/s
  103. Channel(s)           : 6 channels
  104. Channel positions        : Front: L C R, Side: L R, LFE
  105. Sampling rate          : 48.0 kHz
  106. Frame rate           : 93.750 FPS (512 spf)
  107. Bit depth          : 16 bits
  108. Compression mode         : Lossy
  109. Stream size          : 549 MiB (2%)
  110. Title            : Ghost.In.The.Shell.2.Innocence.2004.1080p.BluRay.REMUX.AVC.DTS-HD.MA.5.1-FGT
  111. Language           : Japanese
  112. Default            : No
  113. Forced           : No

  114. Audio #5
  115. ID             : 6
  116. Format           : DTS
  117. Format/Info          : Digital Theater Systems
  118. Format profile         : MA / Core
  119. Mode             : 16
  120. Format settings, Endianness    : Big
  121. Codec ID           : A_DTS
  122. Duration           : 1 h 39 min
  123. Bit rate mode          : Variable / Constant
  124. Bit rate           : Unknown / 768 kb/s
  125. Channel(s)           : 6 channels
  126. Channel positions        : Front: L C R, Side: L R, LFE
  127. Sampling rate          : 48.0 kHz
  128. Frame rate           : 93.750 FPS (512 spf)
  129. Bit depth          : 16 bits
  130. Compression mode         : Lossless / Lossy
  131. Delay relative to video      : 918 ms
  132. Title            : Ghost.In.The.Shell.2.Innocence.2004.1080p.BluRay.REMUX.AVC.DTS-HD.MA.5.1-FGT
  133. Language           : Spanish
  134. Default            : No
  135. Forced           : No

  136. Audio #6
  137. ID             : 7
  138. Format           : DTS
  139. Format/Info          : Digital Theater Systems
  140. Mode             : 16
  141. Format settings, Endianness    : Big
  142. Codec ID           : A_DTS
  143. Duration           : 1 h 39 min
  144. Bit rate mode          : Constant
  145. Bit rate           : 768 kb/s
  146. Channel(s)           : 6 channels
  147. Channel positions        : Front: L C R, Side: L R, LFE
  148. Sampling rate          : 48.0 kHz
  149. Frame rate           : 93.750 FPS (512 spf)
  150. Bit depth          : 16 bits
  151. Compression mode         : Lossy
  152. Delay relative to video      : 918 ms
  153. Stream size          : 549 MiB (2%)
  154. Title            : Ghost.In.The.Shell.2.Innocence.2004.1080p.BluRay.REMUX.AVC.DTS-HD.MA.5.1-FGT
  155. Language           : Spanish
  156. Default            : No
  157. Forced           : No

  158. Audio #7
  159. ID             : 8
  160. Format           : PCM
  161. Codec ID           : A_PCM/INT/LIT
  162. Duration           : 1 h 39 min
  163. Bit rate mode          : Constant
  164. Channel(s)           : 2 channels
  165. Sampling rate          : 48.0 kHz
  166. Bit depth          : 16 bits
  167. Title            : Ghost.In.The.Shell.2.Innocence.2004.1080p.BluRay.REMUX.AVC.DTS-HD.MA.5.1-FGT
  168. Language           : Catalan
  169. Default            : No
  170. Forced           : No

  171. Audio #8
  172. ID             : 9
  173. Format           : AC-3
  174. Format/Info          : Audio Coding 3
  175. Format settings, Endianness    : Big
  176. Codec ID           : A_AC3
  177. Duration           : 1 h 39 min
  178. Bit rate mode          : Constant
  179. Bit rate           : 256 kb/s
  180. Channel(s)           : 2 channels
  181. Channel positions        : Front: L R
  182. Sampling rate          : 48.0 kHz
  183. Frame rate           : 31.250 FPS (1536 spf)
  184. Bit depth          : 16 bits
  185. Compression mode         : Lossy
  186. Stream size          : 183 MiB (1%)
  187. Title            : Ghost.In.The.Shell.2.Innocence.2004.1080p.BluRay.REMUX.AVC.DTS-HD.MA.5.1-FGT
  188. Language           : Japanese
  189. Service kind         : Complete Main
  190. Default            : No
  191. Forced           : No

  192. Text #1
  193. ID             : 10
  194. Format           : PGS
  195. Muxing mode          : zlib
  196. Codec ID           : S_HDMV/PGS
  197. Codec ID/Info          : Picture based subtitle format used on BDs/HD-DVDs
  198. Title            : English-PGS
  199. Language           : English
  200. Default            : Yes
  201. Forced           : No

  202. Text #2
  203. ID             : 11
  204. Format           : PGS
  205. Muxing mode          : zlib
  206. Codec ID           : S_HDMV/PGS
  207. Codec ID/Info          : Picture based subtitle format used on BDs/HD-DVDs
  208. Title            : Spanish-PGS
  209. Language           : Spanish
  210. Default            : No
  211. Forced           : No

  212. Text #3
  213. ID             : 12
  214. Format           : PGS
  215. Muxing mode          : zlib
  216. Codec ID           : S_HDMV/PGS
  217. Codec ID/Info          : Picture based subtitle format used on BDs/HD-DVDs
  218. Title            : English-COMMENTARY-PGS
  219. Language           : English
  220. Default            : No
  221. Forced           : No

  222. Text #4
  223. ID             : 13
  224. Format           : PGS
  225. Muxing mode          : zlib
  226. Codec ID           : S_HDMV/PGS
  227. Codec ID/Info          : Picture based subtitle format used on BDs/HD-DVDs
  228. Title            : Spanish-COMMENTARY-PGS
  229. Language           : Spanish
  230. Default            : No
  231. Forced           : No

  232. Menu
  233. 00:00:00.000         : en:Chapter 01
  234. 00:09:04.710         : en:Chapter 02
  235. 00:13:55.292         : en:Chapter 03
  236. 00:21:01.718         : en:Chapter 04
  237. 00:24:47.068         : en:Chapter 05
  238. 00:32:32.992         : en:Chapter 06
  239. 00:39:14.518         : en:Chapter 07
  240. 00:43:29.398         : en:Chapter 08
  241. 00:50:35.032         : en:Chapter 09
  242. 00:57:06.256         : en:Chapter 10
  243. 01:02:24.198         : en:Chapter 11
  244. 01:08:59.260         : en:Chapter 12
  245. 01:15:47.584         : en:Chapter 13
  246. 01:21:12.659         : en:Chapter 14
  247. 01:28:00.024         : en:Chapter 15
  248. 01:34:43.886         : en:Chapter 16



复制代码
复制代码
100705fgr4j2rbumsc0g4o.jpg 100705xszcedtstsdsscky.jpg 100705ypzv723zn99o5gxd.jpg 100705g2cc6zqdx5rr5ddv.jpg 100705w4hilhihohdo51p1.jpg 100705ymf9eefpdyhz66yh.jpg

                                



回复

使用道具 举报

懒得打字嘛,点击右侧快捷回复 【右侧内容,后台自定义】
您需要登录后才可以回帖 登录 | 立即加入

本版积分规则

Archiver| |网站地图

Copyright © 2024 Comsenz Inc. Powered by 蓝光电影网

本站内容由用户自主分享和转载自互联网,转载目的在于传递更多信息,并不代表本网赞同其观点和对其真实性负责。

如有侵权、违反国家法律政策行为,请联系我们,我们会第一时间及时清除和处理!

举报反馈邮箱:4k1080.com@gmail.com

快速回复 返回顶部 返回列表