找回密码

查看: 4325|回复: 1

[动画] 攻壳机动队2.0 Ghost.In.The.Shell.2.0.2008.1080p.BluRay.REMUX.AVC.DTS-HD.MA.6.1-FGT 20.78GB

[复制链接]
蓝光币
1982
发表于 2017-12-20 23:41:22 | 显示全部楼层 |阅读模式
100736tewy6kxxmhwu0eah.jpg
◎译  名 攻壳灵活队2.0 / Ghost in the Shell 2.0 / K?kaku kid?tai 2.0
◎片  名 攻壳灵活队2.0 攻殻機動隊2.0
◎年  代 2008
◎国  家 日本
◎类  别 行动 / 科幻 / 动画
◎语  言 日语
◎上映日期 2008-07-12(日本)
◎IMDb评分8.0/10 from 11,154 users
◎IMDb链接http://www.imdb.com/title/tt1260502/
◎豆瓣评分 8.9/10 from 10581 users
◎豆瓣链接 https://movie.douban.com/subject/3142101/
◎片  长 85分钟
◎导  演 押井守
◎主  演 田中敦子 Atsuko Tanaka
      大塚明夫 Akio ?tsuka
      山寺宏一 K?ichi Yamadera
      玄田哲章 Tessh? Genda
      山内雅人 Masato Yamanouchi
      小川真司 Shinji Ogawa
      榊原良子 Yoshiko Sakakibara
      山路和弘 Kazuhiro Yamaji
      千叶繁 Shigeru Chiba
      坂本真绫 Maaya Sakamoto

◎简  介 

  公元2029年,未来天下是高科技与信息化的天下。人类生死水平的进步陪伴着犯罪活动的高科技化,因而,专门弹压高科技犯罪的特别军队——公安9课建立了。队长草薙素子,作为一位满身“义体化”的女警,率领公安9课不竭展开行动。
  是次,公安9课帮助公安6课奥秘处理了一位法式员外逃他国的麻烦杂事,又卷入传闻中的黑客“傀儡师”的犯罪事务。当行动堕入僵局之际,傀儡师居然不速之客,出现在公安9课!素子与她的战友们,不知不觉地被卷入了一场触及政府的诡计当中。
  本作按照1995年动画电影《GHOST IN THE SHELL》改编,系剧情稳定、画面完全重制的作品。



  1. Video
  2. ID             : 1
  3. Format           : AVC
  4. Format/Info          : Advanced Video Codec
  5. Format profile         : [email]High@L4.1[/email]
  6. Format settings, CABAC       : Yes
  7. Format settings, ReFrames      : 3 frames
  8. Format settings, GOP       : M=4, N=24
  9. Codec ID           : V_MPEG4/ISO/AVC
  10. Duration           : 1 h 23 min
  11. Bit rate mode          : Variable
  12. Maximum bit rate         : 34.0 Mb/s
  13. Width            : 1 920 pixels
  14. Height           : 1 080 pixels
  15. Display aspect ratio       : 16:9
  16. Frame rate mode        : Constant
  17. Frame rate           : 23.976 (24000/1001) FPS
  18. Standard           : NTSC
  19. Color space          : YUV
  20. Chroma subsampling       : 4:2:0
  21. Bit depth          : 8 bits
  22. Scan type          : Progressive
  23. Title            : Ghost.In.The.Shell.2.0.2008.1080p.BluRay.REMUX.AVC.DTS-HD.MA.6.1-FGT
  24. Language           : English
  25. Default            : No
  26. Forced           : No
  27. Color range          : Limited
  28. Color primaries        : BT.709
  29. Transfer characteristics     : BT.709
  30. Matrix coefficients        : BT.709

  31. Audio #1
  32. ID             : 2
  33. Format           : DTS
  34. Format/Info          : Digital Theater Systems
  35. Format profile         : MA / ES Discrete / Core
  36. Mode             : 16
  37. Format settings, Endianness    : Big
  38. Codec ID           : A_DTS
  39. Duration           : 1 h 23 min
  40. Bit rate mode          : Variable / Constant / Constant
  41. Bit rate           : Unknown / 768 kb/s / 768 kb/s
  42. Channel(s)           : 7 channels / 7 channels / 6 channels
  43. Channel positions        : Front: L C R, Side: L R, Back: C, LFE / Front: L C R, Side: L R, Back: C, LFE / Front: L C R, Side: L R, LFE
  44. Sampling rate          : 48.0 kHz
  45. Frame rate           : 93.750 FPS (512 spf)
  46. Bit depth          : 24 bits
  47. Compression mode         : Lossless / Lossy / Lossy
  48. Title            : Ghost.In.The.Shell.2.0.2008.1080p.BluRay.REMUX.AVC.DTS-HD.MA.6.1-FGT
  49. Language           : English
  50. Default            : Yes
  51. Forced           : No

  52. Audio #2
  53. ID             : 3
  54. Format           : DTS
  55. Format/Info          : Digital Theater Systems
  56. Format profile         : ES Discrete / Core
  57. Mode             : 16
  58. Format settings, Endianness    : Big
  59. Codec ID           : A_DTS
  60. Duration           : 1 h 23 min
  61. Bit rate mode          : Constant
  62. Bit rate           : 768 kb/s
  63. Channel(s)           : 7 channels / 6 channels
  64. Channel positions        : Front: L C R, Side: L R, Back: C, LFE / Front: L C R, Side: L R, LFE
  65. Sampling rate          : 48.0 kHz
  66. Frame rate           : 93.750 FPS (512 spf)
  67. Bit depth          : 24 bits
  68. Compression mode         : Lossy
  69. Stream size          : 457 MiB (2%)
  70. Title            : Ghost.In.The.Shell.2.0.2008.1080p.BluRay.REMUX.AVC.DTS-HD.MA.6.1-FGT
  71. Language           : English
  72. Default            : No
  73. Forced           : No

  74. Audio #3
  75. ID             : 4
  76. Format           : PCM
  77. Codec ID           : A_PCM/INT/LIT
  78. Duration           : 1 h 23 min
  79. Bit rate mode          : Constant
  80. Channel(s)           : 2 channels
  81. Sampling rate          : 48.0 kHz
  82. Bit depth          : 16 bits
  83. Title            : Ghost.In.The.Shell.2.0.2008.1080p.BluRay.REMUX.AVC.DTS-HD.MA.6.1-FGT
  84. Language           : English
  85. Default            : No
  86. Forced           : No

  87. Audio #4
  88. ID             : 5
  89. Format           : DTS
  90. Format/Info          : Digital Theater Systems
  91. Format profile         : MA / ES Discrete / Core
  92. Mode             : 16
  93. Format settings, Endianness    : Big
  94. Codec ID           : A_DTS
  95. Duration           : 1 h 23 min
  96. Bit rate mode          : Variable / Constant / Constant
  97. Bit rate           : Unknown / 768 kb/s / 768 kb/s
  98. Channel(s)           : 7 channels / 7 channels / 6 channels
  99. Channel positions        : Front: L C R, Side: L R, Back: C, LFE / Front: L C R, Side: L R, Back: C, LFE / Front: L C R, Side: L R, LFE
  100. Sampling rate          : 48.0 kHz
  101. Frame rate           : 93.750 FPS (512 spf)
  102. Bit depth          : 24 bits
  103. Compression mode         : Lossless / Lossy / Lossy
  104. Title            : Ghost.In.The.Shell.2.0.2008.1080p.BluRay.REMUX.AVC.DTS-HD.MA.6.1-FGT
  105. Language           : Japanese
  106. Default            : No
  107. Forced           : No

  108. Audio #5
  109. ID             : 6
  110. Format           : DTS
  111. Format/Info          : Digital Theater Systems
  112. Format profile         : ES Discrete / Core
  113. Mode             : 16
  114. Format settings, Endianness    : Big
  115. Codec ID           : A_DTS
  116. Duration           : 1 h 23 min
  117. Bit rate mode          : Constant
  118. Bit rate           : 768 kb/s
  119. Channel(s)           : 7 channels / 6 channels
  120. Channel positions        : Front: L C R, Side: L R, Back: C, LFE / Front: L C R, Side: L R, LFE
  121. Sampling rate          : 48.0 kHz
  122. Frame rate           : 93.750 FPS (512 spf)
  123. Bit depth          : 24 bits
  124. Compression mode         : Lossy
  125. Stream size          : 457 MiB (2%)
  126. Title            : Ghost.In.The.Shell.2.0.2008.1080p.BluRay.REMUX.AVC.DTS-HD.MA.6.1-FGT
  127. Language           : Japanese
  128. Default            : No
  129. Forced           : No

  130. Audio #6
  131. ID             : 7
  132. Format           : PCM
  133. Codec ID           : A_PCM/INT/LIT
  134. Duration           : 1 h 23 min
  135. Bit rate mode          : Constant
  136. Channel(s)           : 2 channels
  137. Sampling rate          : 48.0 kHz
  138. Bit depth          : 16 bits
  139. Title            : Ghost.In.The.Shell.2.0.2008.1080p.BluRay.REMUX.AVC.DTS-HD.MA.6.1-FGT
  140. Language           : Japanese
  141. Default            : No
  142. Forced           : No

  143. Text
  144. ID             : 8
  145. Format           : PGS
  146. Muxing mode          : zlib
  147. Codec ID           : S_HDMV/PGS
  148. Codec ID/Info          : Picture based subtitle format used on BDs/HD-DVDs
  149. Title            : English-PGS
  150. Language           : English
  151. Default            : Yes
  152. Forced           : No

  153. Menu
  154. 00:00:00.000         : en:Chapter 01
  155. 00:04:28.309         : en:Chapter 02
  156. 00:11:24.934         : en:Chapter 03
  157. 00:17:59.036         : en:Chapter 04
  158. 00:26:06.940         : en:Chapter 05
  159. 00:36:06.664         : en:Chapter 06
  160. 00:43:08.252         : en:Chapter 07
  161. 00:49:59.913         : en:Chapter 08
  162. 00:55:22.444         : en:Chapter 09
  163. 01:00:21.200         : en:Chapter 10
  164. 01:06:43.374         : en:Chapter 11
  165. 01:13:54.430         : en:Chapter 12



复制代码
复制代码
100736h1kvl1zd8fh65sud.jpg 100736u4bbmfabt1effmat.jpg 100736hovoo1hwvv4blgs1.jpg 100736ko01bacazbbbvvov.jpg 100736uyyiwspgtjnglljk.jpg 100736hfp6ltoxfzib4ldc.jpg




回复

使用道具 举报

懒得打字嘛,点击右侧快捷回复 【右侧内容,后台自定义】
您需要登录后才可以回帖 登录 | 立即加入

本版积分规则

Archiver| |网站地图

Copyright © 2024 Comsenz Inc. Powered by 蓝光电影网

本站内容由用户自主分享和转载自互联网,转载目的在于传递更多信息,并不代表本网赞同其观点和对其真实性负责。

如有侵权、违反国家法律政策行为,请联系我们,我们会第一时间及时清除和处理!

举报反馈邮箱:4k1080.com@gmail.com

快速回复 返回顶部 返回列表