找回密码

查看: 3219|回复: 0

[恐怖] 血怒 Blood.Rage.1987.1080p.BluRay.REMUX.AVC.DTS-FGT 17.57GB

[复制链接]
蓝光币
1984
发表于 2017-12-20 23:42:13 | 显示全部楼层 |阅读模式
100840paagraani6ajzo8l.jpg
◎译  名 血怒 / Nightmare at Shadow Woods
◎片  名 血怒 Blood Rage
◎年  代 1987
◎国  家 美国
◎类  别 可骇
◎语  言 英语
◎上映日期 无尚映时候
◎IMDb评分5.9/10 from 1,356 users
◎IMDb链接http://www.imdb.com/title/tt0085253/
◎豆瓣评分 今朝无人评价
◎豆瓣链接 https://movie.douban.com/subject/2368035/
◎片  长 82分钟 / 85分钟
◎导  演 John Grissmer
◎主  演 露易丝·拉塞尔 Louise Lasser
      Mark Soper
      Julie Gordon
      Jayne Bentzen
      Marianne Kanter
      James Farrell
      Chad Montgomery
      Lisa Randall
      William Fuller
      Douglas Weiser
      Gerry Lou
      Ed French
      Dana Drescher
      布拉德·利兰 Brad Leland
      Rebecca Thorp

◎简  介 

  Todd and Terry are twins. They are blonde, cute, bright and identical in every respect, with one exception. One of them is a murderer. This starts one night at a drive-in theater when a teenager was slaughtered in the back seat of his car while his girlfriend watched. Todd is found guilty for the...



  1. Video
  2. ID             : 1
  3. Format           : AVC
  4. Format/Info          : Advanced Video Codec
  5. Format profile         : [email]High@L4.1[/email]
  6. Format settings, CABAC       : Yes
  7. Format settings, ReFrames      : 4 frames
  8. Format settings, GOP       : M=3, N=24
  9. Codec ID           : V_MPEG4/ISO/AVC
  10. Duration           : 1 h 22 min
  11. Bit rate mode          : Variable
  12. Bit rate           : 29.4 Mb/s
  13. Maximum bit rate         : 35.0 Mb/s
  14. Width            : 1 920 pixels
  15. Height           : 1 080 pixels
  16. Display aspect ratio       : 16:9
  17. Frame rate mode        : Constant
  18. Frame rate           : 24.000 FPS
  19. Standard           : Component
  20. Color space          : YUV
  21. Chroma subsampling       : 4:2:0
  22. Bit depth          : 8 bits
  23. Scan type          : Progressive
  24. Bits/(Pixel*Frame)       : 0.591
  25. Stream size          : 16.9GB (96%)
  26. Title            : Blood.Rage.1987.1080p.BluRay.REMUX.AVC.DTS-FGT
  27. Language           : English
  28. Default            : No
  29. Forced           : No
  30. Color range          : Limited
  31. Color primaries        : BT.709
  32. Transfer characteristics     : BT.709
  33. Matrix coefficients        : BT.709

  34. Audio #1
  35. ID             : 2
  36. Format           : DTS
  37. Format/Info          : Digital Theater Systems
  38. Mode             : 16
  39. Format settings, Endianness    : Big
  40. Codec ID           : A_DTS
  41. Duration           : 1 h 22 min
  42. Bit rate mode          : Constant
  43. Bit rate           : 384 kb/s
  44. Channel(s)           : 2 channels
  45. Channel positions        : Front: L R
  46. Sampling rate          : 48.0 kHz
  47. Frame rate           : 93.750 FPS (512 spf)
  48. Bit depth          : 16 bits
  49. Compression mode         : Lossy
  50. Stream size          : 226 MiB (1%)
  51. Title            : Blood.Rage.1987.1080p.BluRay.REMUX.AVC.DTS-FGT
  52. Language           : English
  53. Default            : Yes
  54. Forced           : No

  55. Audio #2
  56. ID             : 3
  57. Format           : AC-3
  58. Format/Info          : Audio Coding 3
  59. Format settings, Endianness    : Big
  60. Codec ID           : A_AC3
  61. Duration           : 1 h 22 min
  62. Bit rate mode          : Constant
  63. Bit rate           : 192 kb/s
  64. Channel(s)           : 2 channels
  65. Channel positions        : Front: L R
  66. Sampling rate          : 48.0 kHz
  67. Frame rate           : 31.250 FPS (1536 spf)
  68. Bit depth          : 16 bits
  69. Compression mode         : Lossy
  70. Stream size          : 113 MiB (1%)
  71. Title            : Blood.Rage.1987.1080p.BluRay.REMUX.AVC.DTS-FGT
  72. Language           : English
  73. Service kind         : Complete Main
  74. Default            : No
  75. Forced           : No

  76. Menu
  77. 00:00:00.000         : en:Chapter 01
  78. 00:09:38.375         : en:Chapter 02
  79. 00:15:01.500         : en:Chapter 03
  80. 00:23:32.833         : en:Chapter 04
  81. 00:30:04.041         : en:Chapter 05
  82. 00:35:57.500         : en:Chapter 06
  83. 00:41:52.291         : en:Chapter 07
  84. 00:47:04.000         : en:Chapter 08
  85. 00:54:41.666         : en:Chapter 09
  86. 01:04:59.958         : en:Chapter 10
  87. 01:10:04.083         : en:Chapter 11
  88. 01:17:13.791         : en:Chapter 12



复制代码
复制代码
100840liflft144tlozx2e.jpg 100840y6zaby8a9zy169o8.jpg 100840e7664wbjf7k4m4n2.jpg 100840e11ckcd2hhkzzadt.jpg 100841ai2oj6wilozr62zj.jpg 100841mcgkzb0bufkbacp0.jpg






回复

使用道具 举报

懒得打字嘛,点击右侧快捷回复 【右侧内容,后台自定义】
您需要登录后才可以回帖 登录 | 立即加入

本版积分规则

Archiver| |网站地图

Copyright © 2024 Comsenz Inc. Powered by 蓝光电影网

本站内容由用户自主分享和转载自互联网,转载目的在于传递更多信息,并不代表本网赞同其观点和对其真实性负责。

如有侵权、违反国家法律政策行为,请联系我们,我们会第一时间及时清除和处理!

举报反馈邮箱:4k1080.com@gmail.com

快速回复 返回顶部 返回列表