找回密码

查看: 16937|回复: 7

[动作] 速度与激情8/狂野时速8 The.Fate.of.the.Furious.2017.1080p.BluRay.REMUX.AVC.DTS-X.7.1-FGT 33.71GB

  [复制链接]
蓝光币
1984
发表于 2017-12-20 23:42:39 | 显示全部楼层 |阅读模式
100920glcgjzd5lc5unlfr.jpg
◎译  名 速度与豪情8 / 狂野时速8 / 玩命关头8 / 速激8 / 速8 / 速度8 / The Fast and the Furious 8 / Fast & Furious 8 / Fast Eight / Furious Eight / Furious 8 / Fast 8
◎片  名 速度与豪情8 The Fate of the Furious
◎年  代 2017
◎国  家 美国
◎类  别 行动 / 犯罪
◎语  言 英语
◎上映日期 2017-04-14(美国/中国大陆) / 2017-04-12(法国)
◎IMDb评分7.0/10 from 99,097 users
◎IMDb链接http://www.imdb.com/title/tt4630562/
◎豆瓣评分 7.1/10 from 155833 users
◎豆瓣链接 https://movie.douban.com/subject/26260853/
◎片  长 136分钟
◎导  演 F·加里·格雷
◎主  演 范·迪塞尔 Vin Diesel
      道恩·强森 Dwayne Johnson
      查理兹·塞隆 Charlize Theron
      杰森·斯坦森 Jason Statham
      米歇尔·罗德里格兹 Michelle Rodriguez
      泰瑞斯·吉布森 TyreseGBson
      卢达克里斯 Ludacris
      库尔特·拉塞尔 Kurt Russell
      娜塔莉·伊曼纽尔 Nathalie Emmanuel
      卢克·伊万斯 Luke Evans
      埃尔莎·帕塔奇 Elsa Pataky
      克里斯托弗·海维尤 Kristofer Hivju
      斯科特·伊斯特伍德 Scott Eastwood
      帕特里克·圣埃斯普利特 Patrick St. Esprit

◎简  介 

  多米尼克(范·迪塞尔 Vin Diesel 饰)与莱蒂(米歇尔·罗德里格兹 Michelle Rodriguez 饰)共度蜜月,布莱恩与米娅退出了赛车界,这支曾周游天下的顶级飞车家属队伍的生活正渐趋平平。但是,一位奥秘女子Cipher(查理兹·塞隆 Charlize T heron 饰)的出现,令全部队伍卷入信赖与变节的危机,面临史无前例的考验。



  1. Video
  2. ID             : 1
  3. Format           : AVC
  4. Format/Info          : Advanced Video Codec
  5. Format profile         : [email]High@L4.1[/email]
  6. Format settings, CABAC       : Yes
  7. Format settings, ReFrames      : 4 frames
  8. Codec ID           : V_MPEG4/ISO/AVC
  9. Duration           : 2 h 15 min
  10. Bit rate mode          : Variable
  11. Maximum bit rate         : 37.0 Mb/s
  12. Width            : 1 920 pixels
  13. Height           : 1 080 pixels
  14. Display aspect ratio       : 16:9
  15. Frame rate mode        : Constant
  16. Frame rate           : 23.976 (24000/1001) FPS
  17. Color space          : YUV
  18. Chroma subsampling       : 4:2:0
  19. Bit depth          : 8 bits
  20. Scan type          : Progressive
  21. Title            : The.Fate.of.the.Furious.2017.1080p.BluRay.REMUX.AVC.DTS-X.7.1-FGT
  22. Language           : English
  23. Default            : No
  24. Forced           : No

  25. Audio #1
  26. ID             : 2
  27. Format           : DTS
  28. Format/Info          : Digital Theater Systems
  29. Format profile         : X / MA / Core
  30. Mode             : 16
  31. Format settings, Endianness    : Big
  32. Codec ID           : A_DTS
  33. Bit rate mode          : Variable / Variable / Constant
  34. Bit rate           : Unknown / Unknown / 1 509 kb/s
  35. Channel(s)           : Object Based / 8 channels / 6 channels
  36. Channel positions        : Object Based / Front: L C R, Side: L R, Back: L R, LFE / Front: L C R, Side: L R, LFE
  37. Sampling rate          :/ 48.0 kHz / 48.0 kHz
  38. Frame rate           : 93.750 FPS (512 spf)
  39. Bit depth          :/ 24 bits / 24 bits
  40. Compression mode         :/ Lossless / Lossy
  41. Title            : The.Fate.of.the.Furious.2017.1080p.BluRay.REMUX.AVC.DTS-X.7.1-FGT
  42. Language           : English
  43. Default            : Yes
  44. Forced           : No

  45. Audio #2
  46. ID             : 3
  47. Format           : DTS
  48. Format/Info          : Digital Theater Systems
  49. Mode             : 16
  50. Format settings, Endianness    : Big
  51. Codec ID           : A_DTS
  52. Duration           : 2 h 15 min
  53. Bit rate mode          : Constant
  54. Bit rate           : 1 509 kb/s
  55. Channel(s)           : 6 channels
  56. Channel positions        : Front: L C R, Side: L R, LFE
  57. Sampling rate          : 48.0 kHz
  58. Frame rate           : 93.750 FPS (512 spf)
  59. Bit depth          : 24 bits
  60. Compression mode         : Lossy
  61. Stream size          : 1.43GB (4%)
  62. Title            : The.Fate.of.the.Furious.2017.1080p.BluRay.REMUX.AVC.DTS-X.7.1-FGT
  63. Language           : English
  64. Default            : No
  65. Forced           : No

  66. Audio #3
  67. ID             : 4
  68. Format           : DTS
  69. Format/Info          : Digital Theater Systems
  70. Mode             : 16
  71. Format settings, Endianness    : Big
  72. Codec ID           : A_DTS
  73. Duration           : 2 h 15 min
  74. Bit rate mode          : Constant
  75. Bit rate           : 255 kb/s
  76. Channel(s)           : 2 channels
  77. Channel positions        : Front: L R
  78. Sampling rate          : 48.0 kHz
  79. Frame rate           : 93.750 FPS (512 spf)
  80. Bit depth          : 24 bits
  81. Compression mode         : Lossy
  82. Stream size          : 248 MiB (1%)
  83. Title            : The.Fate.of.the.Furious.2017.1080p.BluRay.REMUX.AVC.DTS-X.7.1-FGT
  84. Language           : English
  85. Default            : No
  86. Forced           : No

  87. Audio #4
  88. ID             : 5
  89. Format           : DTS
  90. Format/Info          : Digital Theater Systems
  91. Mode             : 16
  92. Format settings, Endianness    : Big
  93. Codec ID           : A_DTS
  94. Duration           : 2 h 15 min
  95. Bit rate mode          : Constant
  96. Bit rate           : 768 kb/s
  97. Channel(s)           : 6 channels
  98. Channel positions        : Front: L C R, Side: L R, LFE
  99. Sampling rate          : 48.0 kHz
  100. Frame rate           : 93.750 FPS (512 spf)
  101. Bit depth          : 24 bits
  102. Compression mode         : Lossy
  103. Stream size          : 747 MiB (2%)
  104. Title            : The.Fate.of.the.Furious.2017.1080p.BluRay.REMUX.AVC.DTS-X.7.1-FGT
  105. Language           : Spanish
  106. Default            : No
  107. Forced           : No

  108. Audio #5
  109. ID             : 6
  110. Format           : DTS
  111. Format/Info          : Digital Theater Systems
  112. Mode             : 16
  113. Format settings, Endianness    : Big
  114. Codec ID           : A_DTS
  115. Duration           : 2 h 15 min
  116. Bit rate mode          : Constant
  117. Bit rate           : 768 kb/s
  118. Channel(s)           : 6 channels
  119. Channel positions        : Front: L C R, Side: L R, LFE
  120. Sampling rate          : 48.0 kHz
  121. Frame rate           : 93.750 FPS (512 spf)
  122. Bit depth          : 24 bits
  123. Compression mode         : Lossy
  124. Stream size          : 747 MiB (2%)
  125. Title            : The.Fate.of.the.Furious.2017.1080p.BluRay.REMUX.AVC.DTS-X.7.1-FGT
  126. Language           : French
  127. Default            : No
  128. Forced           : No

  129. Audio #6
  130. ID             : 7
  131. Format           : AC-3
  132. Format/Info          : Audio Coding 3
  133. Mode             : Dolby Digital
  134. Format settings, Endianness    : Big
  135. Codec ID           : A_AC3
  136. Duration           : 2 h 15 min
  137. Bit rate mode          : Constant
  138. Bit rate           : 192 kb/s
  139. Channel(s)           : 2 channels
  140. Channel positions        : Front: L R
  141. Sampling rate          : 48.0 kHz
  142. Frame rate           : 31.250 FPS (1536 spf)
  143. Bit depth          : 16 bits
  144. Compression mode         : Lossy
  145. Stream size          : 187 MiB (1%)
  146. Title            : The.Fate.of.the.Furious.2017.1080p.BluRay.REMUX.AVC.DTS-X.7.1-FGT
  147. Language           : English
  148. Service kind         : Complete Main
  149. Default            : No
  150. Forced           : No

  151. Audio #7
  152. ID             : 8
  153. Format           : AC-3
  154. Format/Info          : Audio Coding 3
  155. Mode             : Dolby Digital
  156. Format settings, Endianness    : Big
  157. Codec ID           : A_AC3
  158. Duration           : 2 h 15 min
  159. Bit rate mode          : Constant
  160. Bit rate           : 192 kb/s
  161. Channel(s)           : 2 channels
  162. Channel positions        : Front: L R
  163. Sampling rate          : 48.0 kHz
  164. Frame rate           : 31.250 FPS (1536 spf)
  165. Bit depth          : 16 bits
  166. Compression mode         : Lossy
  167. Stream size          : 187 MiB (1%)
  168. Title            : The.Fate.of.the.Furious.2017.1080p.BluRay.REMUX.AVC.DTS-X.7.1-FGT
  169. Language           : English
  170. Service kind         : Complete Main
  171. Default            : No
  172. Forced           : No

  173. Text #1
  174. ID             : 9
  175. Format           : PGS
  176. Muxing mode          : zlib
  177. Codec ID           : S_HDMV/PGS
  178. Codec ID/Info          : Picture based subtitle format used on BDs/HD-DVDs
  179. Title            : English-PGS
  180. Language           : English
  181. Default            : Yes
  182. Forced           : No

  183. Text #2
  184. ID             : 10
  185. Format           : PGS
  186. Muxing mode          : zlib
  187. Codec ID           : S_HDMV/PGS
  188. Codec ID/Info          : Picture based subtitle format used on BDs/HD-DVDs
  189. Title            : Spanish-PGS
  190. Language           : Spanish
  191. Default            : No
  192. Forced           : No

  193. Text #3
  194. ID             : 11
  195. Format           : PGS
  196. Muxing mode          : zlib
  197. Codec ID           : S_HDMV/PGS
  198. Codec ID/Info          : Picture based subtitle format used on BDs/HD-DVDs
  199. Title            : French-PGS
  200. Language           : French
  201. Default            : No
  202. Forced           : No

  203. Text #4
  204. ID             : 12
  205. Format           : PGS
  206. Muxing mode          : zlib
  207. Codec ID           : S_HDMV/PGS
  208. Codec ID/Info          : Picture based subtitle format used on BDs/HD-DVDs
  209. Title            : Spanish-FORCED-PGS
  210. Language           : Spanish
  211. Default            : No
  212. Forced           : No

  213. Text #5
  214. ID             : 13
  215. Format           : PGS
  216. Muxing mode          : zlib
  217. Codec ID           : S_HDMV/PGS
  218. Codec ID/Info          : Picture based subtitle format used on BDs/HD-DVDs
  219. Title            : French-FORCED-PGS
  220. Language           : French
  221. Default            : No
  222. Forced           : No

  223. Menu
  224. 00:00:00.000         : en:Chapter 01
  225. 00:13:08.913         : en:Chapter 02
  226. 00:20:30.771         : en:Chapter 03
  227. 00:26:38.638         : en:Chapter 04
  228. 00:32:26.778         : en:Chapter 05
  229. 00:36:40.573         : en:Chapter 06
  230. 00:43:35.613         : en:Chapter 07
  231. 00:47:45.779         : en:Chapter 08
  232. 00:56:00.732         : en:Chapter 09
  233. 01:04:08.302         : en:Chapter 10
  234. 01:09:08.060         : en:Chapter 11
  235. 01:13:24.274         : en:Chapter 12
  236. 01:21:25.714         : en:Chapter 13
  237. 01:29:29.947         : en:Chapter 14
  238. 01:35:12.456         : en:Chapter 15
  239. 01:39:55.781         : en:Chapter 16
  240. 01:45:00.711         : en:Chapter 17
  241. 01:53:01.858         : en:Chapter 18
  242. 02:01:51.262         : en:Chapter 19
  243. 02:06:45.097         : en:Chapter 20



复制代码
复制代码
100920xqgg2innt8nnnn1n.jpg 100920vx6gafxu3gum1az4.jpg 100920ye5eznf0507wm0y5.jpg 100920m8ci030yzyth04u6.jpg 100920rezn0c9sdc9eftnf.jpg 100920bypb8qbgqgkq5l6r.jpg




回复

使用道具 举报

蓝光币
308
发表于 2018-3-17 18:09:21 | 显示全部楼层
我下载提示任务出错怎么解决
回复

使用道具 举报

蓝光币
245
发表于 2018-4-2 13:15:34 | 显示全部楼层
非常 感谢不错的电影
回复

使用道具 举报

蓝光币
56
发表于 2018-11-20 22:22:22 | 显示全部楼层
谢谢分享。。。。。。。。。。。。。。。。
回复

使用道具 举报

蓝光币
5
发表于 2019-6-27 23:06:21 | 显示全部楼层
谢谢分享!!!!!!!!!
回复

使用道具 举报

蓝光币
131
发表于 2019-9-17 12:15:37 | 显示全部楼层

感谢楼主的无私分享!要想蓝光电影网好 就靠你我他
回复

使用道具 举报

蓝光币
0
发表于 2023-8-6 00:03:49 | 显示全部楼层

楼主太厉害了!楼主,电影应该很好看我觉得蓝光电影网真是个好地方!
回复

使用道具 举报

蓝光币
3
发表于 2024-4-12 16:53:52 | 显示全部楼层
楼主发贴辛苦了,谢谢楼主分享!我觉得蓝光电影网是注册对了!
回复

使用道具 举报

懒得打字嘛,点击右侧快捷回复 【右侧内容,后台自定义】
您需要登录后才可以回帖 登录 | 立即加入

本版积分规则

Archiver| |网站地图

Copyright © 2024 Comsenz Inc. Powered by 蓝光电影网

本站内容由用户自主分享和转载自互联网,转载目的在于传递更多信息,并不代表本网赞同其观点和对其真实性负责。

如有侵权、违反国家法律政策行为,请联系我们,我们会第一时间及时清除和处理!

举报反馈邮箱:4k1080.com@gmail.com

快速回复 返回顶部 返回列表