找回密码

查看: 2454|回复: 0

[恐怖] 生肉 Raw.Meat.1972.1080p.BluRay.REMUX.AVC.DTS-HD.MA.2.0-FGT 19.58GB

[复制链接]
蓝光币
1984
发表于 2017-12-20 23:43:38 | 显示全部楼层 |阅读模式
101028ky7ykke89k034kl7.jpg
◎译  名 生肉 / Raw Meat
◎片  名 生肉 Death Line
◎年  代 1972
◎国  家 英国
◎类  别 可骇
◎语  言 英语
◎上映日期 1972
◎IMDb评分6.0/10 from 2,663 users
◎IMDb链接http://www.imdb.com/title/tt0068458/
◎豆瓣评分 今朝无人评价
◎豆瓣链接 https://movie.douban.com/subject/2241375/
◎片  长 87 分钟
◎导  演 Gary Sherman
◎主  演 Donald Pleasence
      Norman Rossington
      David Ladd

◎简  介 

  There's something pretty grisly going on under London in the Tube tunnels between Holborn and Russell Square. When a top civil servant becomes the latest to disappear down there Scotland Yard start to take the matter seriously. Helping them are a young couple who get nearer to the horrors underground than they would wish.



  1. Video
  2. ID             : 1
  3. Format           : AVC
  4. Format/Info          : Advanced Video Codec
  5. Format profile         : [email]High@L4.1[/email]
  6. Format settings, CABAC       : Yes
  7. Format settings, ReFrames      : 3 frames
  8. Format settings, GOP       : M=3, N=12
  9. Codec ID           : V_MPEG4/ISO/AVC
  10. Duration           : 1 h 27 min
  11. Bit rate mode          : Variable
  12. Maximum bit rate         : 35.0 Mb/s
  13. Width            : 1 920 pixels
  14. Height           : 1 080 pixels
  15. Display aspect ratio       : 16:9
  16. Frame rate mode        : Constant
  17. Frame rate           : 23.976 (24000/1001) FPS
  18. Standard           : NTSC
  19. Color space          : YUV
  20. Chroma subsampling       : 4:2:0
  21. Bit depth          : 8 bits
  22. Scan type          : Progressive
  23. Title            : Raw.Meat.1972.1080p.BluRay.REMUX.AVC.DTS-HD.MA.2.0-FGT
  24. Language           : English
  25. Default            : No
  26. Forced           : No
  27. Color range          : Limited
  28. Color primaries        : BT.709
  29. Transfer characteristics     : BT.709
  30. Matrix coefficients        : BT.709

  31. Audio #1
  32. ID             : 2
  33. Format           : DTS
  34. Format/Info          : Digital Theater Systems
  35. Format profile         : MA / Core
  36. Mode             : 16
  37. Format settings, Endianness    : Big
  38. Codec ID           : A_DTS
  39. Duration           : 1 h 27 min
  40. Bit rate mode          : Variable / Constant
  41. Bit rate           : Unknown / 1 509 kb/s
  42. Channel(s)           : 2 channels
  43. Channel positions        :/ Front: L R
  44. Sampling rate          : 48.0 kHz
  45. Frame rate           : 93.750 FPS (512 spf)
  46. Bit depth          : 16 bits
  47. Compression mode         : Lossless / Lossy
  48. Title            : Raw.Meat.1972.1080p.BluRay.REMUX.AVC.DTS-HD.MA.2.0-FGT
  49. Language           : English
  50. Default            : Yes
  51. Forced           : No

  52. Audio #2
  53. ID             : 3
  54. Format           : DTS
  55. Format/Info          : Digital Theater Systems
  56. Mode             : 16
  57. Format settings, Endianness    : Big
  58. Codec ID           : A_DTS
  59. Duration           : 1 h 27 min
  60. Bit rate mode          : Constant
  61. Bit rate           : 1 509 kb/s
  62. Channel(s)           : 2 channels
  63. Channel positions        : Front: L R
  64. Sampling rate          : 48.0 kHz
  65. Frame rate           : 93.750 FPS (512 spf)
  66. Bit depth          : 16 bits
  67. Compression mode         : Lossy
  68. Stream size          : 943 MiB (5%)
  69. Title            : Raw.Meat.1972.1080p.BluRay.REMUX.AVC.DTS-HD.MA.2.0-FGT
  70. Language           : English
  71. Default            : No
  72. Forced           : No

  73. Audio #3
  74. ID             : 4
  75. Format           : AC-3
  76. Format/Info          : Audio Coding 3
  77. Format settings, Endianness    : Big
  78. Codec ID           : A_AC3
  79. Duration           : 1 h 27 min
  80. Bit rate mode          : Constant
  81. Bit rate           : 192 kb/s
  82. Channel(s)           : 2 channels
  83. Channel positions        : Front: L R
  84. Sampling rate          : 48.0 kHz
  85. Frame rate           : 31.250 FPS (1536 spf)
  86. Bit depth          : 16 bits
  87. Compression mode         : Lossy
  88. Stream size          : 120 MiB (1%)
  89. Title            : Raw.Meat.1972.1080p.BluRay.REMUX.AVC.DTS-HD.MA.2.0-FGT
  90. Language           : English
  91. Service kind         : Complete Main
  92. Default            : No
  93. Forced           : No

  94. Text #1
  95. ID             : 5
  96. Format           : PGS
  97. Muxing mode          : zlib
  98. Codec ID           : S_HDMV/PGS
  99. Codec ID/Info          : Picture based subtitle format used on BDs/HD-DVDs
  100. Title            : English-PGS
  101. Language           : English
  102. Default            : Yes
  103. Forced           : No

  104. Text #2
  105. ID             : 6
  106. Format           : PGS
  107. Muxing mode          : zlib
  108. Codec ID           : S_HDMV/PGS
  109. Codec ID/Info          : Picture based subtitle format used on BDs/HD-DVDs
  110. Title            : French-PGS
  111. Language           : French
  112. Default            : No
  113. Forced           : No

  114. Text #3
  115. ID             : 7
  116. Format           : PGS
  117. Muxing mode          : zlib
  118. Codec ID           : S_HDMV/PGS
  119. Codec ID/Info          : Picture based subtitle format used on BDs/HD-DVDs
  120. Title            : Spanish-PGS
  121. Language           : Spanish
  122. Default            : No
  123. Forced           : No

  124. Menu
  125. 00:00:00.000         : en:Chapter 01
  126. 00:05:43.885         : en:Chapter 02
  127. 00:10:27.668         : en:Chapter 03
  128. 00:14:54.351         : en:Chapter 04
  129. 00:21:22.281         : en:Chapter 05
  130. 00:23:26.113         : en:Chapter 06
  131. 00:31:34.434         : en:Chapter 07
  132. 00:33:12.031         : en:Chapter 08
  133. 00:38:43.029         : en:Chapter 09
  134. 00:43:52.588         : en:Chapter 10
  135. 00:47:52.160         : en:Chapter 11
  136. 00:52:57.007         : en:Chapter 12
  137. 00:56:03.068         : en:Chapter 13
  138. 01:03:01.152         : en:Chapter 14
  139. 01:09:51.520         : en:Chapter 15
  140. 01:15:35.489         : en:Chapter 16
  141. 01:21:30.719         : en:Chapter 17
  142. 01:26:14.002         : en:Chapter 18



复制代码
复制代码
101028tyyn2ycnopkcd95n.jpg 101028e6jvn2hh6bsbf4rm.jpg 101028sxei52z969905i20.jpg 101028q3ctc4bbs4c9gvbn.jpg 101028va2hoehhrhz21pn1.jpg 101028z8d81f272xo1tz1y.jpg

                                



回复

使用道具 举报

懒得打字嘛,点击右侧快捷回复 【右侧内容,后台自定义】
您需要登录后才可以回帖 登录 | 立即加入

本版积分规则

Archiver| |网站地图

Copyright © 2024 Comsenz Inc. Powered by 蓝光电影网

本站内容由用户自主分享和转载自互联网,转载目的在于传递更多信息,并不代表本网赞同其观点和对其真实性负责。

如有侵权、违反国家法律政策行为,请联系我们,我们会第一时间及时清除和处理!

举报反馈邮箱:4k1080.com@gmail.com

快速回复 返回顶部 返回列表